Инструкция новичку Путеводитель по форуму Прокси для Telegram Показать подсказки , это бомба!

Скачать Питер FM (2006) DVDRip-AVC от KORSAR бесплатно через торрент

Если Вы не хотите скачивать, Вы всегда можете посмотреть онлайн, просто нажмите кнопку ниже :

Открыть плеер

Torrent_Bot

Торрент-Бот
Бот форума
4 Окт 2016
98
12

Питер FM
Информация о фильме
Страна: Россия
Производство: Профит, Канал СТС
Жанр: мелодрама, комедия
Год выпуска: 2006
Продолжительность: 01:24:00
Перевод: Не требуется

Режиссер: Оксана Бычкова
В ролях: Екатерина Федулова, Евгений Цыганов, Владимир Машков, Андрей Краско, Татьяна Кравченко, Александр Баширов, Ирина Рахманова

О фильме:
Маша — диджей на популярном питерском радио, Максим — молодой архитектор. Маша готовится к свадьбе с бывшим одноклассником Костей, Максим победил в международном конкурсе архитекторов, и теперь его зовут на работу в Германию. Но оба они не уверены, что им нужно именно это.
Максима удерживает в Питере любовь к девушке, которая его оставила, а Маша чувствует, что ее жених Костя — совсем не тот человек, который ей нужен. И, кто знает, как бы повернулась их судьба, если бы не Случай — Маша теряет мобильный телефон, а Максим его находит…
Такая история могла произойти только в большом городе, который сталкивает и разводит персонажей на своих улицах. Это лирическая история о двух молодых людях, оказавшихся перед выбором, когда каждый должен решить — что же для него действительно важно?
Возникший между героями «телефонный роман», понимание и тепло, которые они нашли друг в друге, помогают им отыскать верное решение своих проблем. Выбор сделан. И теперь, казалось бы, ничто не мешает Маше и Максиму встретиться…



Качество: DVDRip (AVC)
Видео: MPEG-4 AVC, [email protected], 25 fps, 3464 Кбит/с
Аудио: Русский, AC3, 6 ch, 448 Кбит/с
Cубтитры: нет
Навигация по главам: есть

Mediainfo
x264 [info]: frame I:707 Avg QP:17.46 size: 78365
x264 [info]: frame P:28289 Avg QP:19.11 size: 36134
x264 [info]: frame B:97004 Avg QP:20.97 size: 11391
x264 [info]: consecutive B-frames: 2.2% 2.9% 9.6% 21.1% 17.4% 37.0% 4.6% 2.5% 1.5% 0.4% 0.1% 0.1% 0.4% 0.2%

General
Unique ID : 257888223208748758329996771243200015192 (0xC20377134CF8B9E37DE9438A1A86EB58)
Complete name : S:FILMSПитер FM (2006) DVDRip-AVC - KORSAR.mkv
Format : Matroska
Format version : Version 4 / Version 2
File size : 2.30 GiB
Duration : 1 h 24 min
Overall bit rate : 3 915 kb/s
Movie name : Питер FM (2006)_rip_by_Cthulhu
Encoded date : UTC 2019-03-16 08:09:00
Writing application : mkvmerge v28.2.0 ('The Awakening') 64-bit
Writing library : libebml v1.3.6 + libmatroska v1.4.9
Cover : Yes
Attachments : cover3.jpg

Video
ID : 1
Format : AVC
Format/Info : Advanced Video Codec
Format profile : [email protected]
Format settings, CABAC : Yes
Format settings, RefFrames : 13 frames
Codec ID : V_MPEG4/ISO/AVC
Duration : 1 h 24 min
Bit rate : 3 464 kb/s
Width : 712 pixels
Height : 560 pixels
Display aspect ratio : 4:3
Original display aspect ratio : 4:3
Frame rate mode : Constant
Frame rate : 25.000 FPS
Color space : YUV
Chroma subsampling : 4:2:0
Bit depth : 8 bits
Scan type : Progressive
Bits/(Pixel*Frame) : 0.348
Stream size : 2.03 GiB (89%)
Writing library : x264 core 152 r2851kMod ba24899
Encoding settings : cabac=1 / ref=13 / deblock=1:-2:-1 / analyse=0x3:0x133 / me=umh / subme=11 / psy=1 / fade_compensate=0.00 / psy_rd=1.00:0.05 / mixed_ref=1 / me_range=48 / chroma_me=1 / trellis=2 / 8x8dct=1 / cqm=0 / deadzone=21,11 / fast_pskip=1 / chroma_qp_offset=-3 / threads=17 / lookahead_threads=4 / sliced_threads=0 / nr=0 / decimate=1 / interlaced=0 / bluray_compat=0 / constrained_intra=0 / bframes=13 / b_pyramid=2 / b_adapt=2 / b_bias=0 / direct=3 / weightb=1 / open_gop=0 / weightp=2 / keyint=250 / keyint_min=25 / scenecut=40 / intra_refresh=0 / rc_lookahead=60 / rc=crf / mbtree=0 / crf=18.0000 / qcomp=0.70 / qpmin=0 / qpmax=39 / qpstep=4 / vbv_maxrate=50000 / vbv_bufsize=62500 / crf_max=0.0 / nal_hrd=none / filler=0 / ip_ratio=1.40 / pb_ratio=1.30 / aq=3:1.00
Language : Russian
Default : Yes
Forced : No
Color range : Limited
Color primaries : BT.601 PAL
Transfer characteristics : BT.470 System B, BT.470 System G
Matrix coefficients : BT.601

Audio
ID : 2
Format : AC-3
Format/Info : Audio Coding 3
Mode extension : CM (complete main)
Format settings, Endianness : Big
Codec ID : A_AC3
Duration : 1 h 23 min
Bit rate mode : Constant
Bit rate : 448 kb/s
Channel(s) : 6 channels
Channel positions : Front: L C R, Side: L R, LFE
Sampling rate : 48.0 kHz
Frame rate : 31.250 FPS (1536 spf)
Compression mode : Lossy
Stream size : 269 MiB (11%)
Language : Russian
Default : Yes
Forced : No

Menu
00:00:00.000 : en:Chapter 1
00:03:11.480 : en:Chapter 2
00:10:07.160 : en:Chapter 3
00:20:10.640 : en:Chapter 4
00:35:23.240 : en:Chapter 5
00:42:26.040 : en:Chapter 6
00:49:02.400 : en:Chapter 7
00:54:18.440 : en:Chapter 8
01:04:52.760 : en:Chapter 9
01:09:52.040 : en:Chapter 10
01:15:19.200 : en:Chapter 11
01:20:19.240 : en:Chapter 12
01:23:58.880 : en:Chapter 13
01:23:59.480 : en:Chapter 14
Скриншоты

Релиз от: Cthulhu
 

Вложения

  • 12,5 KB Просмотры: 0
    Личеров 0
    Сидеров 0
    Файлов 1
    Объем 2,3 GB
Ваш e-mail не будет опубликован. Он потребуется для подтверждения Вашего поста.
Оформление текста Нажмите «Ввод», чтобы отправить ответ.

Привет!

Мы группа людей которые решили помочь другим в решении их проблем, а так же пользователям с поиском самых свежих и качественных инфопродуктов. За 4 с небольшим месяца мы создали этот форум на который заходят ежедневно тысячи человек и посещаемость постоянно растёт. Мы создали панель лицензирования для защиты PHP скриптов от воровства и SEO панель для мониторинга наших сайтов и выбора верной стратегии их развития. Мы надеемся что то что мы создали пригодится Вам и возможно Вы поможете нам развиваться и совершенствоваться вместе с Вами.

Статистика форума

Темы
337.479
Сообщения
359.807
Пользователи
25.418
Новый пользователь
Kat007

Приложения форума для iOS и Android


У ркн там нет власти ;)
Гостевуха
Помощь Пользователи
  • Captain @ Captain:
    @mizaider, ты там живой?
    Цитата
  • K Chat Bot:
    Гость kkifkaa присоединился к комнате.
  • K (Гость) kkifkaa:
    Всем привет!
    Цитата
  • K (Гость) kkifkaa:
    mizaider тут есть?
    Цитата
  • K Chat Bot:
    Гость kkifkaa присоединился к комнате.
  • K (Гость) kkifkaa:
    Здравствуйте уважаемые члены форума. Подскажите пож-та, что можно сделать если я был заблокирован якобы за: «Вы были заблокированы по следующей причине: Копирование материалов на другие ресурсы». Самое страшное, то что тебя обвиняют и не дают возможность пообщаться и разобраться в причинах. Кстати в такой ситуации может быть каждый из нас. Вот так стараешься размещаешь тут материал, а тебя без разбирательств в бан. И нет возможности обратится в тех поддержку т.к. твой аккаут заблокирован. Подскажите пож-та, как можно связаться с администрацией, чтобы была проведена проверка? Сейчас я новичок и как раз в этот день для нас заливал на форум новые курсы (один залил, второй не успел). Я сначала подумал, что какой-то запрещений материал разместил, а потом понял, что меня обвинили в том, что я не делал.
    Цитата
  • K (Гость) kkifkaa:
    mizaider ты здесь помоги пожалуйста!
    Цитата
  • mizaider @ mizaider:
    Вопрос решен.
    Цитата
  • goodness @ goodness:
    Добрый вечер уважаемые форумчане!)
    Цитата
  • goodness @ goodness:
    Вопрос к администрации: Имеется одна точка доступа wifi на квартиру, вашим форумом пользуюсь пока что только я, но хотел бы зарегистрировать и свою девушку,
    Цитата
  • goodness @ goodness:
    система нас не забанит из-за того что мы с одной точки доступа но с разных устройств?
    Цитата
  • mizaider @ mizaider:
    Не забанит
    Цитата
  • Captain @ Captain:
    Батя в здание
    Цитата
  • 13SASHA13 @ 13SASHA13:
    Цитата
  • Uggi Chat Bot:
    Uggi покинул(а) комнату.
  • M Chat Bot:
    mr_robot_i2p покинул(а) комнату.
  • Captain @ Captain:
    Батя в здание
    Цитата
  • J Chat Bot:
    joker567 покинул(а) комнату.
    J Chat Bot: joker567 покинул(а) комнату.