За сегодня опубликовано 8 новых материалов.
Инструкция новичку Путеводитель по форуму Прокси для Telegram Показать подсказки , это бомба!

Скачать Пирамммида (2011) BDRip-AVC бесплатно через торрент

  • Получай до 480 рублей за каждого приглашенного пользователя!
    представляем Вам очередное расширение партнерской программы, подробности описаны тут -> ссылка
  • 90% материалов доступно к скачиванию после простой регистрации!
    Если же ты хочешь скачивать материалы без требования оставлять отзывы то получи группу "Новичок", 10 способов повышения описаны тут -> ссылка
  • К сожалению количество битых ссылок растет и мы уже не можем их оперативно восстанавливать поэтому просим помощи у каждого нашего пользователя.
    С сегодняшнего дня, за каждую восстановленную ссылку мы заплатим Вам.
    Подробнее тут -> ссылка
  • Перенесем твои заслуги с другого ресурса!
    Мы понимаем как сложно прокачивать аккаунты на форумах, вроде раскачал аккаунт, а тут появляется ресурс в 100 раз круче но тоже с системой прокачки и снова качать аккаунт...
    Предлагаем вам перенести Ваши заслуги на другом подобном ресурсе к нам.
    Подробности описаны тут -> ссылка
  • Вы можете получать по 2.5% с каждой покупки и продажи на маркете! Подробности в теме Партнёрская программа
Если Вы не хотите скачивать, Вы всегда можете посмотреть онлайн, просто нажмите кнопку ниже :

Открыть плеер

Torrent_Bot

Торрент-Бот
Бот форума
4 Окт 2016
125
31
20
Пирамммида

Страна: Россия
Производство: Леополис
Год выпуска: 2011
Жанр:триллер, драма, криминал, биография
Продолжительность: 01:49:45

Режиссер: Эльдар Салаватов
Авторы сценария: Максим Василенко, Сергей Крайнев, Сергей Мавроди

В ролях: Алексей Серебряков, Фёдор Бондарчук, Пётр Фёдоров, Екатерина Вилкова, Никита Салопин, Юрий Цурило, Алексей Горбунов, Артем Михалков

Описание: Россия, начало 90-х. Страна в процессе болезненного перехода от сверхцентрализованной плановой экономики к рыночным отношениям. Простые люди, прежде жившие в условиях стабильности, растеряны и перепуганы. Все пришло в движение, ход истории разворачивается на глазах. Поворотные моменты истории всегда способствуют появлению всевозможных самозванцев и талантливых мошенников.

Сергей Мамонтов ищет, куда применить себя и свой интеллект. И находит. Мамонтов заказывает макет «ценной бумаги» с имперской вязью, богатым орнаментом, водяными знаками и собственным портретом в самом центре. Своим «деньгам» он назначает цену сам и продает их по принципу: сегодня всегда дороже, чем вчера. Началась активная рекламная кампания. Чуть больше двух недель оказалось достаточно, чтобы народ уже выстроился в очереди за «мамонтовками», а Мамонтов стал едва ли не национальным героем. И могущественные банкиры, и властные структуры в растерянности — никто не имеет понятия, как прекратить этот беспредел — а в МММ уже набралось больше 10 миллионов вкладчиков… Заговоры, похищения людей, погони, заказные убийства. И немного любви...

0622671072241524b29ba04065a6c573.gif40b740dbe0988a5bc9e9504d875762e0.gif

Перевод: не требуется (оригинал)
Субтитры: нет


Качество: BDRip-AVC | исходник Pirammmida | Blu-ray 1080p
Формат: МКV
Видео кодек: AVC
Аудио кодек: АС3
Видео: 1024x436 (2.35:1), 23.976 fps, MPEG-4 AVC ~2 398 kbps avg
Аудио: 48.0 kHz, AC3 Dolby Digital, 3/2 (L,C,R,l,r) + LFE ch, ~448 kbps

Дата премьеры (мир): 7 апреля 2011
Дата премьеры (РФ): 7 апреля 2011, «UPI»

Релиз от:
Media Info
General
Complete name : Pirammmida.2011.RUS.BDRip-AVC.AC3.-HQ-ViDEO.mkv
Format : Matroska
File size : 2.18 GiB
Duration : 1h 49mn
Overall bit rate : 2 847 Kbps
Movie name : Pirammmida / 2011 / Release by Vaippp / HQ-ViDEO
Encoded date : UTC 2011-06-15 09:41:44
Writing application : mkvmerge v4.8.0 ('I Got The...') сборка от May 24 2011 03:12:58
Writing library : libebml v1.2.0 + libmatroska v1.1.0

Video
ID : 1
Format : AVC
Format/Info : Advanced Video Codec
Format profile : [email protected]
Format settings, CABAC : Yes
Format settings, ReFrames : 11 frames
Muxing mode : Container [email protected]
Codec ID : V_MPEG4/ISO/AVC
Duration : 1h 49mn
Bit rate : 2 342 Kbps
Nominal bit rate : 2 398 Kbps
Width : 1 024 pixels
Height : 436 pixels
Display aspect ratio : 2.35:1
Frame rate : 23.976 fps
Resolution : 8 bits
Colorimetry : 4:2:0
Scan type : Progressive
Bits/(Pixel*Frame) : 0.219
Stream size : 1.79 GiB (82%)
Title : BDRip by Vaippp
Writing library : x264 core 115 r1995 c1e60b9
Encoding settings : cabac=1 / ref=11 / deblock=1:-2:-2 / analyse=0x3:0x133 / me=umh / subme=9 / psy=1 / psy_rd=1.05:0.05 / mixed_ref=1 / me_range=48 / chroma_me=1 / trellis=2 / 8x8dct=1 / cqm=0 / deadzone=21,11 / fast_pskip=0 / chroma_qp_offset=-3 / threads=12 / sliced_threads=0 / nr=0 / decimate=1 / interlaced=0 / bluray_compat=0 / constrained_intra=0 / bframes=10 / b_pyramid=2 / b_adapt=2 / b_bias=0 / direct=3 / weightb=1 / open_gop=0 / weightp=2 / keyint=250 / keyint_min=23 / scenecut=40 / intra_refresh=0 / rc_lookahead=40 / rc=2pass / mbtree=0 / bitrate=2398 / ratetol=1.0 / qcomp=0.70 / qpmin=1 / qpmax=65 / qpstep=4 / cplxblur=20.0 / qblur=0.5 / vbv_maxrate=40000 / vbv_bufsize=30000 / nal_hrd=none / ip_ratio=1.40 / pb_ratio=1.30 / aq=2:0.90 / zones=152739,157903,q=35
Language : Russian

Audio
ID : 2
Format : AC-3
Format/Info : Audio Coding 3
Codec ID : A_AC3
Duration : 1h 49mn
Bit rate mode : Constant
Bit rate : 448 Kbps
Channel(s) : 6 channels
Channel positions : Front: L C R, Surround: L R, LFE
Sampling rate : 48.0 KHz
Stream size : 352 MiB (16%)
Title : Original
Language : Russian

Menu
00:00:00.000 : ru:00:00:00.000
00:06:29.973 : ru:00:06:29.973
00:14:45.551 : ru:00:14:45.551
00:21:46.889 : ru:00:21:46.889
00:28:05.642 : ru:00:28:05.642
00:35:59.824 : ru:00:35:59.824
00:41:38.830 : ru:00:41:38.830
00:46:57.106 : ru:00:46:57.106
00:53:27.246 : ru:00:53:27.246
01:02:08.558 : ru:01:02:08.558
01:07:37.095 : ru:01:07:37.095
01:14:19.830 : ru:01:14:19.830
01:23:23.457 : ru:01:23:23.457
01:29:22.274 : ru:01:29:22.274
01:35:54.207 : ru:01:35:54.207
01:45:00.461 : ru:01:45:00.461
Скриншоты
ebddaf5adebd202cc1f1aa8c36e00d02.png5049d28f905298652799b17d1b077fd4.png09a26265caea081164b97ae4bb69210c.png
 

Вложения

Ваш e-mail не будет опубликован. Он потребуется для подтверждения Вашего поста.
Оформление текста Нажмите «Ввод», чтобы отправить ответ.