За сегодня опубликовано 0 новых материалов.
Инструкция новичку Путеводитель по форуму Прокси для Telegram Показать подсказки , это бомба!

Скачать Петерлоо / Peterloo (2018) BDRip 1080p | HDrezka Studio бесплатно через торрент

  • Получай до 480 рублей за каждого приглашенного пользователя!
    представляем Вам очередное расширение партнерской программы, подробности описаны тут -> ссылка
  • 90% материалов доступно к скачиванию после простой регистрации!
    Если же ты хочешь скачивать материалы без требования оставлять отзывы то получи группу "Новичок", 10 способов повышения описаны тут -> ссылка
  • К сожалению количество битых ссылок растет и мы уже не можем их оперативно восстанавливать поэтому просим помощи у каждого нашего пользователя.
    С сегодняшнего дня, за каждую восстановленную ссылку мы заплатим Вам.
    Подробнее тут -> ссылка
  • Перенесем твои заслуги с другого ресурса!
    Мы понимаем как сложно прокачивать аккаунты на форумах, вроде раскачал аккаунт, а тут появляется ресурс в 100 раз круче но тоже с системой прокачки и снова качать аккаунт...
    Предлагаем вам перенести Ваши заслуги на другом подобном ресурсе к нам.
    Подробности описаны тут -> ссылка
  • Вы можете получать по 2.5% с каждой покупки и продажи на маркете! Подробности в теме Партнёрская программа
Если Вы не хотите скачивать, Вы всегда можете посмотреть онлайн, просто нажмите кнопку ниже :

Открыть плеер

Torrent_Bot

Торрент-Бот
Бот форума
4 Окт 2016
125
30
20



Информация о фильме
Название: Петерлоо
Оригинальное название: Peterloo
Год выпуска: 2018
Жанр:Драма, история
Режиссер: Майк Ли
В ролях: Рори Киннер, Максин Пик, Пирс Куигли, Дэвид Мурст, Рейчел Финнеган, Том Мередит, Симона Битмат, Роберт Уилфорт, Карл Джонсон, Сэм Тротон

О фильме: Действие фильма, основанного на реальных событиях, разворачивается в 1819 году в Англии. Тысячи людей собираются на митинг, чтобы выслушать радикального политического агитатора и оратора Генри Ханта, который требует предоставления избирательного права всем гражданам страны. Правительство обвиняет протестующих в подстрекательстве к насилию и приказывает солдатам разогнать толпу. Решив, что им дали полный карт-бланш, военные нападают на безоружных людей, устраивая кровавую резню, навеки вошедшую в историю.



Выпущено: Великобритания, BFI Film Fund, Film4, Thin Man Films
Продолжительность: 02:34:10
Перевод: Профессиональный (многоголосый, закадровый) | HDrezka Studio

Файл
Качество: BDRip 1080p
Контейнер: MKV
Видео: MPEG-4 AVC, 1920x1040, 14.6 Mбит/с, 24.000 fps
Аудио 1: Russian: AC3, 2 ch, 192 Кбит/с - HDrezka Studio
Аудио 2: English: DTS, 6 ch, 1509 Кбит/с - Original
Субтитры: Английские (Full, SDH)
Навигация по главам: Есть

Скриншоты

MediaInfo
General
Unique ID : 206212216581870143177758188246279483957 (0x9B23073D724CF4AF9D2D9E8929E17235)
Complete name : Peterloo.2018.BDRip.1080p.mkv
Format : Matroska
Format version : Version 2
File size : 17.9 GiB
Duration : 2 h 34 min
Overall bit rate : 16.6 Mb/s
Encoded date : UTC 2019-05-05 09:36:20
Writing application : mkvmerge v5.8.0 ('No Sleep / Pillow') built on Sep 2 2012 15:37:04
Writing library : libebml v1.2.3 + libmatroska v1.3.0

Video
ID : 1
Format : AVC
Format/Info : Advanced Video Codec
Format profile : [email protected]
Format settings, CABAC : Yes
Format settings, RefFrames : 4 frames
Codec ID : V_MPEG4/ISO/AVC
Duration : 2 h 34 min
Bit rate : 14.6 Mb/s
Width : 1 920 pixels
Height : 1 040 pixels
Display aspect ratio : 1.85:1
Frame rate mode : Constant
Frame rate : 24.000 FPS
Color space : YUV
Chroma subsampling : 4:2:0
Bit depth : 8 bits
Scan type : Progressive
Bits/(Pixel*Frame) : 0.305
Stream size : 15.7 GiB (88%)
Title : Peterloo.2018.BDRip.1080p
Writing library : x264 core 157 r2935 545de2f
Encoding settings : cabac=1 / ref=4 / deblock=1:-3:-3 / analyse=0x3:0x133 / me=umh / subme=10 / psy=1 / psy_rd=1.00:0.00 / mixed_ref=1 / me_range=32 / chroma_me=1 / trellis=2 / 8x8dct=1 / cqm=0 / deadzone=21,11 / fast_pskip=0 / chroma_qp_offset=-2 / threads=18 / lookahead_threads=4 / sliced_threads=0 / nr=0 / decimate=1 / interlaced=0 / bluray_compat=0 / constrained_intra=0 / bframes=12 / b_pyramid=2 / b_adapt=2 / b_bias=0 / direct=3 / weightb=1 / open_gop=0 / weightp=2 / keyint=300 / keyint_min=24 / scenecut=40 / intra_refresh=0 / rc=crf / mbtree=0 / crf=19.0 / qcomp=0.60 / qpmin=0 / qpmax=69 / qpstep=4 / ip_ratio=1.40 / pb_ratio=1.30 / aq=3:1.00
Language : English
Default : Yes
Forced : No

Audio #1
ID : 2
Format : AC-3
Format/Info : Audio Coding 3
Format settings, Endianness : Big
Codec ID : A_AC3
Duration : 2 h 34 min
Bit rate mode : Constant
Bit rate : 192 kb/s
Channel(s) : 2 channels
Channel positions : Front: L R
Sampling rate : 48.0 kHz
Frame rate : 31.250 FPS (1536 SPF)
Bit depth : 16 bits
Compression mode : Lossy
Stream size : 212 MiB (1%)
Title : MVO, HDrezka Studio
Language : Russian
Service kind : Complete Main
Default : Yes
Forced : No

Audio #2
ID : 3
Format : DTS
Format/Info : Digital Theater Systems
Mode : 16
Format settings, Endianness : Big
Codec ID : A_DTS
Duration : 2 h 34 min
Bit rate mode : Constant
Bit rate : 1 509 kb/s
Channel(s) : 6 channels
Channel positions : Front: L C R, Side: L R, LFE
Sampling rate : 48.0 kHz
Frame rate : 93.750 FPS (512 SPF)
Bit depth : 16 bits
Compression mode : Lossy
Stream size : 1.63 GiB (9%)
Title : Original
Language : English
Default : No
Forced : No

Text #1
ID : 4
Format : UTF-8
Codec ID : S_TEXT/UTF8
Codec ID/Info : UTF-8 Plain Text
Title : Full
Language : English
Default : No
Forced : No

Text #2
ID : 5
Format : UTF-8
Codec ID : S_TEXT/UTF8
Codec ID/Info : UTF-8 Plain Text
Title : SDH
Language : English
Default : No
Forced : No

Menu
00:00:00.000 : en:Chapter 01
00:08:42.958 : en:Chapter 02
00:17:58.958 : en:Chapter 03
00:24:52.583 : en:Chapter 04
00:33:35.333 : en:Chapter 05
00:39:57.083 : en:Chapter 06
00:49:11.458 : en:Chapter 07
00:59:47.875 : en:Chapter 08
01:06:05.833 : en:Chapter 09
01:13:42.875 : en:Chapter 10
01:21:36.792 : en:Chapter 11
01:27:25.167 : en:Chapter 12
01:40:13.625 : en:Chapter 13
01:45:24.833 : en:Chapter 14
01:52:25.875 : en:Chapter 15
01:59:04.250 : en:Chapter 16
02:06:52.167 : en:Chapter 17
02:12:56.125 : en:Chapter 18
02:22:07.667 : en:Chapter 19
02:27:26.917 : en:Chapter 20
 

Вложения

  • 90,5 KB Просмотры: 0
    Личеров 0
    Сидеров 0
    Файлов 1
    Объем 17,9 GB
Ваш e-mail не будет опубликован. Он потребуется для подтверждения Вашего поста.
Оформление текста Нажмите «Ввод», чтобы отправить ответ.