За сегодня опубликовано 14 новых материалов.
Инструкция новичку Путеводитель по форуму Прокси для Telegram Показать подсказки , это бомба!

Скачать Первый учитель (1965) DVDRip-AVC от KORSAR бесплатно через торрент

  • Получай до 480 рублей за каждого приглашенного пользователя!
    представляем Вам очередное расширение партнерской программы, подробности описаны тут -> ссылка
  • 90% материалов доступно к скачиванию после простой регистрации!
    Если же ты хочешь скачивать материалы без требования оставлять отзывы то получи группу "Новичок", 10 способов повышения описаны тут -> ссылка
  • К сожалению количество битых ссылок растет и мы уже не можем их оперативно восстанавливать поэтому просим помощи у каждого нашего пользователя.
    С сегодняшнего дня, за каждую восстановленную ссылку мы заплатим Вам.
    Подробнее тут -> ссылка
  • Перенесем твои заслуги с другого ресурса!
    Мы понимаем как сложно прокачивать аккаунты на форумах, вроде раскачал аккаунт, а тут появляется ресурс в 100 раз круче но тоже с системой прокачки и снова качать аккаунт...
    Предлагаем вам перенести Ваши заслуги на другом подобном ресурсе к нам.
    Подробности описаны тут -> ссылка
  • Вы можете получать по 2.5% с каждой покупки и продажи на маркете! Подробности в теме Партнёрская программа
Если Вы не хотите скачивать, Вы всегда можете посмотреть онлайн, просто нажмите кнопку ниже :

Открыть плеер

Torrent_Bot

Торрент-Бот
Бот форума
4 Окт 2016
125
31
20




Первый учитель
Жанр: драма
Год выпуска: 1965
Страна: СССР
Продолжительность: 01:34:57
Режиссёр: Андрей Кончаловский
В ролях: Болот Бейшеналиев, Наталья Аринбасарова, Идрис Ногайбаев, Даркуль Куюкова, М. Кычтобалев, Клара Юсупжанова, Бакен Кыдыкеева, Медел Маниязов, Искен Рыскулов, Советбек Джумадылов

Описание: Действие разворачивается в первые годы Советской власти в Кыргызстане (Киргизская Советская Социалистическая Республика).Не так давно закончилась Гражданская война. В аул, по путёвке комсомола, приезжает учитель Дюйшен, вчерашний красноармеец. Его пылкость и фанатизм, с которыми он пытается нести прогресс, сталкиваются с многовековыми устоями жизни на Востоке...



Релиз от:

Качество: DVDRip-AVC
Видео: MPEG-4 AVC, [email protected], 25 fps, 1962 Кбит/с
Аудио: AC3, 6 ch, 448 Кбит/с, AC3, 1 ch, 192 Кбит/с
Язык: Русский
Субтитры: Русские



Инфо файл
x264 [info]: frame I:712 Avg QP:17.52 size: 55121
x264 [info]: frame P:35638 Avg QP:18.91 size: 23197
x264 [info]: frame B:106084 Avg QP:21.63 size: 5348
x264 [info]: consecutive B-frames: 2.7% 5.2% 13.4% 26.5% 19.8% 26.7% 3.6% 1.2% 0.6% 0.4% 0.1%
Общее
Уникальный идентификатор : 254380391924306072381236128043375634123 (0xBF5FE1A3E6F2C0559DD1D39AA1BDA6CB)
Полное имя : D:Первый учитель_1965-DVDRip-AVC_KORSAR.mkv
Формат : Matroska
Версия формата : Version 2
Размер файла : 1,76 Гбайт
Продолжительность : 1 ч. 34 м.
Общий поток : 2655 Кбит/сек
Название фильма : Первый учитель_1965-DVDRip-AVC_KORSAR
Дата кодирования : UTC 2019-03-28 15:55:00
Программа кодирования : mkvmerge v5.8.0 ('No Sleep / Pillow') built on Sep 2 2012 15:37:04
Библиотека кодирования : libebml v1.2.3 + libmatroska v1.3.0

Видео
Идентификатор : 1
Формат : AVC
Формат/Информация : Advanced Video Codec
Профиль формата : [email protected]
Параметр CABAC формата : Да
Параметр ReFrames формата : 16 кадров
Идентификатор кодека : V_MPEG4/ISO/AVC
Битрейт : 1962 Кбит/сек
Ширина : 716 пикселей
Высота : 576 пикселей
Соотношение сторон : 4:3
Режим частоты кадров : Переменный
Частота кадров в оригинале : 25,000 кадров/сек
Цветовое пространство : YUV
Субдискретизация насыщенности : 4:2:0
Битовая глубина : 8 бит
Тип развёртки : Прогрессивная
Библиотека кодирования : x264 core 152 r2851kMod ba24899
Настройки программы : cabac=1 / ref=16 / deblock=1:-2:-1 / analyse=0x3:0x133 / me=umh / subme=10 / psy=1 / fade_compensate=0.00 / psy_rd=1.05:0.10 / mixed_ref=1 / me_range=40 / chroma_me=1 / trellis=2 / 8x8dct=1 / cqm=0 / deadzone=21,11 / fast_pskip=1 / chroma_qp_offset=-3 / threads=12 / lookahead_threads=3 / sliced_threads=0 / nr=0 / decimate=1 / interlaced=0 / bluray_compat=0 / constrained_intra=0 / bframes=10 / b_pyramid=2 / b_adapt=2 / b_bias=0 / direct=1 / weightb=1 / open_gop=0 / weightp=2 / keyint=250 / keyint_min=25 / scenecut=40 / intra_refresh=0 / rc=crf / mbtree=0 / crf=17.7000 / qcomp=0.63 / qpmin=0 / qpmax=30 / qpstep=4 / ip_ratio=1.40 / pb_ratio=1.30 / aq=1:1.00
Язык : English
Default : Да
Forced : Нет
Основные цвета : BT.601 PAL
Характеристики трансфера : BT.470 System B, BT.470 System G
Коэффициенты матрицы : BT.601

Аудио #1
Идентификатор : 2
Формат : AC-3
Формат/Информация : Audio Coding 3
Расширение режима : CM (complete main)
Параметр Endianness формата : Big
Идентификатор кодека : A_AC3
Продолжительность : 1 ч. 34 м.
Вид битрейта : Постоянный
Битрейт : 448 Кбит/сек
Каналы : 6 каналов
Расположение каналов : Front: L C R, Side: L R, LFE
Частота : 48,0 КГц
Битовая глубина : 16 бит
Метод сжатия : С потерями
Размер потока : 304 Мбайт (17%)
Язык : Russian
Default : Да
Forced : Нет

Аудио #2
Идентификатор : 3
Формат : AC-3
Формат/Информация : Audio Coding 3
Расширение режима : CM (complete main)
Параметр Endianness формата : Big
Идентификатор кодека : A_AC3
Продолжительность : 1 ч. 34 м.
Вид битрейта : Постоянный
Битрейт : 192 Кбит/сек
Каналы : 1 канал
Расположение каналов : Front: C
Частота : 48,0 КГц
Битовая глубина : 16 бит
Метод сжатия : С потерями
Размер потока : 130 Мбайт (7%)
Язык : Russian
Default : Нет
Forced : Нет

Текст
Идентификатор : 4
Формат : UTF-8
Идентификатор кодека : S_TEXT/UTF8
Идентификатор кодека/Информация : UTF-8 Plain Text
Язык : Russian
Default : Нет
Forced : Нет

Меню
00:00:00.000 : en:Chapter 1
00:08:21.720 : en:Chapter 2
00:16:14.720 : en:Chapter 3
00:23:05.040 : en:Chapter 4
00:28:32.720 : en:Chapter 5
00:33:56.680 : en:Chapter 6
00:40:07.720 : en:Chapter 7
00:47:35.800 : en:Chapter 8
00:55:39.240 : en:Chapter 9
01:06:13.120 : en:Chapter 10
01:17:51.920 : en:Chapter 11
01:22:07.120 : en:Chapter 12
 

Вложения

  • 18,5 KB Просмотры: 0
    Личеров 0
    Сидеров 0
    Файлов 1
    Объем 1,8 GB
Ваш e-mail не будет опубликован. Он потребуется для подтверждения Вашего поста.
Оформление текста Нажмите «Ввод», чтобы отправить ответ.