За сегодня опубликовано 0 новых материалов.
Инструкция новичку Путеводитель по форуму Прокси для Telegram Показать подсказки , это бомба!

Скачать Охотник на убийц / Suspect Zero (2004) WEB-DLRip-AVC | P2 бесплатно через торрент

  • Получай до 480 рублей за каждого приглашенного пользователя!
    представляем Вам очередное расширение партнерской программы, подробности описаны тут -> ссылка
  • 90% материалов доступно к скачиванию после простой регистрации!
    Если же ты хочешь скачивать материалы без требования оставлять отзывы то получи группу "Новичок", 10 способов повышения описаны тут -> ссылка
  • К сожалению количество битых ссылок растет и мы уже не можем их оперативно восстанавливать поэтому просим помощи у каждого нашего пользователя.
    С сегодняшнего дня, за каждую восстановленную ссылку мы заплатим Вам.
    Подробнее тут -> ссылка
  • Перенесем твои заслуги с другого ресурса!
    Мы понимаем как сложно прокачивать аккаунты на форумах, вроде раскачал аккаунт, а тут появляется ресурс в 100 раз круче но тоже с системой прокачки и снова качать аккаунт...
    Предлагаем вам перенести Ваши заслуги на другом подобном ресурсе к нам.
    Подробности описаны тут -> ссылка
  • Вы можете получать по 2.5% с каждой покупки и продажи на маркете! Подробности в теме Партнёрская программа
Если Вы не хотите скачивать, Вы всегда можете посмотреть онлайн, просто нажмите кнопку ниже :

Открыть плеер

Torrent_Bot

Торрент-Бот
Бот форума
4 Окт 2016
125
32
20






Информация о фильме
Название: Охотник на убийц
Оригинальное название: Suspect Zero
Год выхода: 2004
Жанр: Фантастика, триллер, криминал

Режиссер: Э. Елиас Мериге
В ролях: Аарон Экхарт, Бен Кингсли, Кэрри-Энн Мосс, Гарри Дж. Ленникс, Кевин Чэмберлин, Джулиан Рейес, Кит Кэмпбелл, Хлоя Расселл, Эллен Блейк, Уильям Б. Джонсон

О фильме:
История расследования серии убийств, совершенных с особой жестокостью. В ходе следствия выясняется, что все жертвы маньяка — серийные убийцы, долгие годы разыскиваемые полицией. Агент ФБР, ведущий дело, начинает испытывать симпатию к таинственному «мстителю», но это не мешает ему продолжать его поиск. Кроме того, у него возникают подозрения по поводу причастности к этим преступлениям своего коллеги…




Страна: Великобритания, Германия, США
Студия: Cruise/Wagner Productions, IM Filmproduktions und Vertriebs GmbH and Co. KG, Intermedia Films, Lakeshore Entertainment, Paramount Pictures
Продолжительность: 01:39:37
Перевод: Профессиональный двухголосый [R5]
Субтитры: Нет

Файл
Качество: WEB-DLRip-AVC
Видео: MPEG-4 AVC, ~1600 Кбит/с, 1020x572
Аудио: AC3, 6 ch, 448 Кбит/с







M/I
General
Unique ID : 102405143146633462011521654527016474706 (0x4D0A835EC044C0452E75E63269569852)
Complete name : Охотник на убийц.(2004).WEB-DLRIP_AVC.[-=DoMiNo=-].mkv
Format : Matroska
Format version : Version 4 / Version 2
File size : 1.45 GiB
Duration : 1h 39mn
Overall bit rate : 2 086 Kbps

Video
ID : 1
Format : AVC
Format/Info : Advanced Video Codec
Format profile : [email protected]
Format settings, CABAC : Yes
Format settings, ReFrames : 12 frames
Codec ID : V_MPEG4/ISO/AVC
Duration : 1h 39mn
Bit rate : 1 636 Kbps
Width : 1 020 pixels
Height : 572 pixels
Display aspect ratio : 16:9
Frame rate mode : Constant
Frame rate : 23.976 fps
Color space : YUV
Chroma subsampling : 4:2:0
Bit depth : 8 bits
Scan type : Progressive
Bits/(Pixel*Frame) : 0.117
Stream size : 1.11 GiB (77%)
Writing library : x264 core 148 r2597M e86f3a1
Encoding settings : cabac=1 / ref=12 / deblock=1:-3:-3 / analyse=0x3:0x133 / me=umh / subme=10 / psy=1 / psy_rd=1.00:0.20 / mixed_ref=1 / me_range=32 / chroma_me=1 / trellis=2 / 8x8dct=1 / cqm=0 / deadzone=21,11 / fast_pskip=0 / chroma_qp_offset=-3 / threads=6 / lookahead_threads=1 / sliced_threads=0 / nr=0 / decimate=1 / interlaced=0 / bluray_compat=0 / constrained_intra=0 / bframes=11 / b_pyramid=2 / b_adapt=2 / b_bias=0 / direct=1 / weightb=1 / open_gop=0 / weightp=2 / keyint=230 / keyint_min=23 / scenecut=40 / intra_refresh=0 / rc=2pass / mbtree=0 / bitrate=1636 / ratetol=1.0 / qcomp=0.60 / qpmin=0 / qpmax=69 / qpstep=4 / cplxblur=20.0 / qblur=0.5 / ip_ratio=1.40 / pb_ratio=1.30 / aq=1:1.00
Language : English
Default : Yes
Forced : No
Color range : Limited
Color primaries : BT.709
Transfer characteristics : BT.709
Matrix coefficients : BT.709

Audio
ID : 2
Format : AC-3
Format/Info : Audio Coding 3
Mode extension : CM (complete main)
Format settings, Endianness : Big
Codec ID : A_AC3
Duration : 1h 39mn
Bit rate mode : Constant
Bit rate : 448 Kbps
Channel(s) : 6 channels
Channel positions : Front: L C R, Side: L R, LFE
Sampling rate : 48.0 KHz
Bit depth : 32 bits
Compression mode : Lossy
Stream size : 319 MiB (21%)
Title : DVO
Language : Russian
Default : Yes
Forced : No

Menu
00:00:00.000 : :1
00:07:31.000 : :2
00:16:41.000 : :3
00:24:01.000 : :4
00:31:54.000 : :5
00:39:24.000 : :6
00:48:40.000 : :7
00:54:39.000 : :8
01:02:04.000 : :9
01:09:57.000 : :10
01:19:53.000 : :11
01:29:03.000 : :12
Скриншоты

 

Вложения

  • 15,5 KB Просмотры: 0
    Личеров 0
    Сидеров 0
    Файлов 1
    Объем 1,5 GB
Ваш e-mail не будет опубликован. Он потребуется для подтверждения Вашего поста.
Оформление текста Нажмите «Ввод», чтобы отправить ответ.