За сегодня опубликовано 0 новых материалов.
Инструкция новичку Путеводитель по форуму Прокси для Telegram Показать подсказки , это бомба!

Скачать Отважная / The Brave One (2007) BDRip 1080p | D, A бесплатно через торрент

  • Получай до 480 рублей за каждого приглашенного пользователя!
    представляем Вам очередное расширение партнерской программы, подробности описаны тут -> ссылка
  • 90% материалов доступно к скачиванию после простой регистрации!
    Если же ты хочешь скачивать материалы без требования оставлять отзывы то получи группу "Новичок", 10 способов повышения описаны тут -> ссылка
  • К сожалению количество битых ссылок растет и мы уже не можем их оперативно восстанавливать поэтому просим помощи у каждого нашего пользователя.
    С сегодняшнего дня, за каждую восстановленную ссылку мы заплатим Вам.
    Подробнее тут -> ссылка
  • Перенесем твои заслуги с другого ресурса!
    Мы понимаем как сложно прокачивать аккаунты на форумах, вроде раскачал аккаунт, а тут появляется ресурс в 100 раз круче но тоже с системой прокачки и снова качать аккаунт...
    Предлагаем вам перенести Ваши заслуги на другом подобном ресурсе к нам.
    Подробности описаны тут -> ссылка
  • Вы можете получать по 2.5% с каждой покупки и продажи на маркете! Подробности в теме Партнёрская программа
Если Вы не хотите скачивать, Вы всегда можете посмотреть онлайн, просто нажмите кнопку ниже :

Открыть плеер

Torrent_Bot

Торрент-Бот
Бот форума
4 Окт 2016
125
32
20


Название: Отважная
Оригинальное название: The Brave One
Год выхода: 2007
Страна: США, Австралия
Жанр:Драма, криминал, триллер
Режиссер: Нил Джордан / Neil Jordan
В ролях: Джоди Фостер, Нэвин Эндрюс, Терренс Ховард, Мэри Стинберген, Джейн Адамс, Никки Кэт, Зои Кравец, Ларри Фесенден, Майкл Дж. Бёрг, Дэна Эскелсон, Джек Карузо

О фильме: Ведущая нью-йоркского радио Эрика Бэйн едва оправилась от жестокого нападения, которое стоило жизни ее жениху... Она принимается бродить по улицам ночного города в поисках преступников, виновных в ее несчастье, и жестоко мстит им. В то время как жители города восторгаются ее анонимными подвигами, полиция пытается ее найти. Преследуемая упорным детективом, Эрика спрашивает себя: действительно ли ее карающий крестовый поход является правильным решением?






Продолжительность: 02:02:18
Перевод:
1) русский дублированный
2) русский одноголосый закадровый [Немахов]
3) оригинальная английская дорожка
Субтитры: русские, английски



Формат: MKV
Информация о файле:
Качество: BDRip 1080p
Видео: H.264/AVC, 1920х800, 23.976 fps, 10.3 mbps
Аудио #1: Русский AC3 5.1, 48 kHz, 384 kbps (Дубляж)
Аудио #2: Русский AC3 5.1, 48 kHz, 384 kbps (Немахов)
Аудио #3: Английский AC3 5.1, 48 kHz, 640 kbps

x264log
x264 [info]: frame I:1042 Avg QP:14.22 size:152403 PSNR Mean Y:50.01 U:53.00 V:53.05 Avg:50.73 Global:50.29
x264 [info]: frame P:36781 Avg QP:16.01 size: 85471 PSNR Mean Y:48.88 U:52.33 V:52.41 Avg:49.67 Global:48.84
x264 [info]: frame B:138117 Avg QP:16.73 size: 44446 PSNR Mean Y:47.78 U:51.56 V:51.64 Avg:48.63 Global:48.15
x264 [info]: consecutive B-frames: 1.8% 2.7% 6.1% 9.1% 27.2% 46.2% 3.3% 3.0% 0.6%
x264 [info]: mb I I16..4: 18.6% 67.5% 13.9%
x264 [info]: mb P I16..4: 4.0% 31.8% 2.5% P16..4: 22.5% 25.7% 6.8% 0.0% 0.0% skip: 6.6%
x264 [info]: mb B I16..4: 0.7% 6.2% 0.3% B16..8: 31.1% 23.0% 3.9% direct:11.3% skip:23.4% L0:38.3% L1:38.2% BI:23.4%
x264 [info]: 8x8 transform intra:83.3% inter:31.8%
x264 [info]: direct mvs spatial:99.4% temporal:0.6%
x264 [info]: coded y,uvDC,uvAC intra: 93.0% 86.6% 73.1% inter: 38.3% 28.5% 12.6%
x264 [info]: i16 v,h,dc,p: 22% 5% 13% 59%
x264 [info]: i8 v,h,dc,ddl,ddr,vr,hd,vl,hu: 10% 10% 21% 8% 9% 9% 10% 10% 13%
x264 [info]: i4 v,h,dc,ddl,ddr,vr,hd,vl,hu: 11% 10% 15% 8% 12% 11% 12% 9% 12%
x264 [info]: i8c dc,h,v,p: 49% 20% 18% 13%
x264 [info]: Weighted P-Frames: Y:1.4% UV:0.8%
x264 [info]: ref P L0: 50.3% 6.8% 30.9% 11.1% 0.9% 0.0%
x264 [info]: ref B L0: 86.9% 11.0% 2.1%
x264 [info]: ref B L1: 92.1% 7.9%
x264 [info]: SSIM Mean Y:0.9874460 (19.012db)
x264 [info]: PSNR Mean Y:48.022 U:51.728 V:51.814 Avg:48.856 Global:48.299 kb/s:10292.75

x264 [total]: encoded 175940 frames, 1.90 fps, 10292.75 kb/s
MediaInfo
General
Complete name : D:++TORRENT+++++UP+++Отважная (The Brave One) [2007, BDRip 1080p, Dub + AVO + Orig + Subs].mkv
Format : Matroska
File size : 10.00 GiB
Duration : 2h 2mn
Overall bit rate : 11.7 Mbps
Encoded date : UTC 2011-09-11 09:10:43
Writing application : mkvmerge v4.5.0 ('Speed of Light') built on Feb 1 2011 02:10:32
Writing library : libebml v1.2.0 + libmatroska v1.1.0
Cover : Yes

Video
ID : 1
Format : AVC
Format/Info : Advanced Video Codec
Format profile : [email protected]
Format settings, CABAC : Yes
Format settings, ReFrames : 4 frames
Muxing mode : Container [email protected]
Codec ID : V_MPEG4/ISO/AVC
Duration : 2h 2mn
Bit rate : 10.3 Mbps
Width : 1 920 pixels
Height : 800 pixels
Display aspect ratio : 2.40:1
Frame rate : 23.976 fps
Color space : YUV
Chroma subsampling : 4:2:0
Bit depth : 8 bits
Scan type : Progressive
Bits/(Pixel*Frame) : 0.280
Stream size : 8.60 GiB (86%)
Title : The.Brave.One.2007.BDRip.1080p-CactusKnight
Writing library : x264 core 116 r2074 2641b9e
Encoding settings : cabac=1 / ref=4 / deblock=1:-3:-3 / analyse=0x3:0x113 / me=umh / subme=11 / psy=1 / psy_rd=1.00:0.10 / mixed_ref=1 / me_range=24 / chroma_me=1 / trellis=2 / 8x8dct=1 / cqm=0 / deadzone=21,11 / fast_pskip=0 / chroma_qp_offset=-3 / threads=6 / sliced_threads=0 / nr=0 / decimate=0 / interlaced=0 / bluray_compat=0 / constrained_intra=0 / bframes=8 / b_pyramid=2 / b_adapt=2 / b_bias=0 / direct=3 / weightb=1 / open_gop=0 / weightp=2 / keyint=250 / keyint_min=23 / scenecut=40 / intra_refresh=0 / rc_lookahead=50 / rc=2pass / mbtree=0 / bitrate=10300 / ratetol=1.0 / qcomp=0.80 / qpmin=0 / qpmax=69 / qpstep=4 / cplxblur=20.0 / qblur=0.5 / vbv_maxrate=50000 / vbv_bufsize=62500 / nal_hrd=none / ip_ratio=1.40 / pb_ratio=1.30 / aq=1:1.00
Language : English

Audio #1
ID : 2
Format : AC-3
Format/Info : Audio Coding 3
Mode extension : CM (complete main)
Codec ID : A_AC3
Duration : 2h 2mn
Bit rate mode : Constant
Bit rate : 384 Kbps
Channel(s) : 6 channels
Channel positions : Front: L C R, Side: L R, LFE
Sampling rate : 48.0 KHz
Bit depth : 16 bits
Video delay : 3ms
Stream size : 336 MiB (3%)
Title : Dub
Language : Russian

Audio #2
ID : 3
Format : AC-3
Format/Info : Audio Coding 3
Mode extension : CM (complete main)
Codec ID : A_AC3
Duration : 2h 2mn
Bit rate mode : Constant
Bit rate : 384 Kbps
Channel(s) : 6 channels
Channel positions : Front: L C R, Side: L R, LFE
Sampling rate : 48.0 KHz
Bit depth : 16 bits
Stream size : 336 MiB (3%)
Title : AVO
Language : Russian

Audio #3
ID : 4
Format : AC-3
Format/Info : Audio Coding 3
Mode extension : CM (complete main)
Codec ID : A_AC3
Duration : 2h 2mn
Bit rate mode : Constant
Bit rate : 640 Kbps
Channel(s) : 6 channels
Channel positions : Front: L C R, Side: L R, LFE
Sampling rate : 48.0 KHz
Bit depth : 16 bits
Video delay : 3ms
Stream size : 560 MiB (5%)
Language : English

Text #1
ID : 5
Format : UTF-8
Codec ID : S_TEXT/UTF8
Codec ID/Info : UTF-8 Plain Text
Language : Russian

Text #2
ID : 6
Format : UTF-8
Codec ID : S_TEXT/UTF8
Codec ID/Info : UTF-8 Plain Text
Language : English

Menu
00:00:00.000 : en:On-Air Credits
00:03:41.054 : en:The Whole Deal
00:08:28.341 : en:park Attack
00:11:01.411 : en:Doing Our Thing
00:14:48.888 : en:Doesn't Feel Like That
00:17:45.398 : en:Invaded Dreams
00:21:57.149 : en:I Realize How Difficult
00:26:17.242 : en:Illegal Purchase
00:30:02.634 : en:You Don't Let Go
00:32:18.103 : en:Corner Store
00:35:52.650 : en:Stranger Inside
00:40:40.605 : en:When It Touches You
00:45:35.650 : en:Subway Targets
00:49:31.802 : en:Every Bullet Hit Home
00:53:37.548 : en:Gone and Back Now
00:57:59.643 : en:Become Someone Else
01:02:51.768 : en:Backseat Show
01:06:50.506 : en:Windshield Wipeout
01:08:55.131 : en:Audience Profile
01:14:33.469 : en:When You Can't Sleep
01:17:39.154 : en:Going to Leave a Scar
01:22:34.283 : en:Friend at an Interview
01:27:30.745 : en:Just the Face
01:30:28.757 : en:The Lineup
01:35:59.587 : en:Someone Close to Me
01:40:36.030 : en:private Searches
01:43:05.513 : en:Getting the Message
01:47:22.936 : en:90 Clayton Ave
01:50:52.813 : en:I Have the Right
01:53:26.967 : en:Never a Vigilante
01:58:14.087 : en:End Credits
Скриншоты
 

Вложения

  • 51,1 KB Просмотры: 0
    Личеров 0
    Сидеров 0
    Файлов 1
    Объем 10 GB
Ваш e-mail не будет опубликован. Он потребуется для подтверждения Вашего поста.
Оформление текста Нажмите «Ввод», чтобы отправить ответ.