За сегодня опубликовано 3 новых материалов.
Инструкция новичку Путеводитель по форуму Прокси для Telegram Показать подсказки , это бомба!

Скачать Откинь гигантскую тень / Cast a Giant Shadow (1966) BDRip 720p от KORSAR | P2 бесплатно через торрент

  • Получай до 480 рублей за каждого приглашенного пользователя!
    представляем Вам очередное расширение партнерской программы, подробности описаны тут -> ссылка
  • 90% материалов доступно к скачиванию после простой регистрации!
    Если же ты хочешь скачивать материалы без требования оставлять отзывы то получи группу "Новичок", 10 способов повышения описаны тут -> ссылка
  • К сожалению количество битых ссылок растет и мы уже не можем их оперативно восстанавливать поэтому просим помощи у каждого нашего пользователя.
    С сегодняшнего дня, за каждую восстановленную ссылку мы заплатим Вам.
    Подробнее тут -> ссылка
  • Перенесем твои заслуги с другого ресурса!
    Мы понимаем как сложно прокачивать аккаунты на форумах, вроде раскачал аккаунт, а тут появляется ресурс в 100 раз круче но тоже с системой прокачки и снова качать аккаунт...
    Предлагаем вам перенести Ваши заслуги на другом подобном ресурсе к нам.
    Подробности описаны тут -> ссылка
  • Вы можете получать по 2.5% с каждой покупки и продажи на маркете! Подробности в теме Партнёрская программа
Если Вы не хотите скачивать, Вы всегда можете посмотреть онлайн, просто нажмите кнопку ниже :

Открыть плеер

Torrent_Bot

Торрент-Бот
Бот форума
4 Окт 2016
125
29
20

Откинь гигантскую тень
Cast a Giant Shadow


Страна: США
Жанр: драма, военный, приключения, история
Год выпуска: 1966
Продолжительность: 02:17:55
Перевод: Профессиональный (двухголосый, закадровый)
Субтитры: русские, английские.


Режиссер: Мелвилл Шэвелсон / Melville Shavelson


В ролях: Кирк Дуглас(Col. David «Mickey» Marcus), Зента Бергер(Magda Simon), Энджи Дикинсон(Emma Marcus), Джеймс Дональд(Maj. Safir), Статхис Гиаллелис(Ram Oren), Лютер Эдлер(Jacob Zion), Тополь(Abou Ibn Kader), Рут Уайт(Mrs. Chaison), Гордон Джексон(James MacAfee), Майкл Хордерн(British Ambassador), Аллан Катбертсон(Immigration Officer), Джереми Кемп(Senior British Officer)


Описание: История рассказывает о полковнике Давиде Маркусе, окончившем Вест Пойнт, юристе и полицейском в Нью-Йорке, который в конце 1940 годов завербован в военный лагерь добровольцев помогать основанию Израиля, до сих пор только предмету мечтаний в выступлениях на ассамблеях ООН...











Качество: BDRip 720p
Контейнер: MKV

Видео: MPEG-4 AVC, 1280x546 (2.35:1), 6500 kbps, 23,976 fps, 0,388 bpp
Аудио №1: русский / AC3 / 2.0 / 48 kHz / 192 kbps / DVO
Аудио №2: русский / AC3 / 2.0 / 48 kHz / 192 kbps / DVO
Аудио №3: английский / AC3 / 2.0 / 48 kHz / 192 kbps
Навигация по главам: есть


Media Info
******************************************************
x264 [info]: frame I:1173 Avg QP:17.43 size:110722
x264 [info]: frame P:41872 Avg QP:19.62 size: 53577
x264 [info]: frame B:155363 Avg QP:21.49 size: 28000
******************************************************
Формат : Matroska
Версия формата : Version 2
Размер файла : 6,82 Гбайт
Продолжительность : 2 ч. 17 м.
Общий поток : 7079 Кбит/сек
Название фильма : = Откинь гигантскую тень / Cast a Giant Shadow (1966) BDRip 720p - KORSAR =
Дата кодирования : UTC 2019-03-30 07:38:27
Программа кодирования : mkvmerge v5.8.0 ('No Sleep / Pillow') built on Sep 2 2012 15:37:04
Библиотека кодирования : libebml v1.2.3 + libmatroska v1.3.0
Attachment : Yes

Видео
Идентификатор : 1
Формат : AVC
Формат/Информация : Advanced Video Codec
Профиль формата : [email protected]
Параметр CABAC формата : Да
Параметр ReFrames формата : 12 кадров
Идентификатор кодека : V_MPEG4/ISO/AVC
Продолжительность : 2 ч. 17 м.
Битрейт : 6500 Кбит/сек
Ширина : 1280 пикселей
Высота : 546 пикселей
Соотношение сторон : 2,35:1
Режим частоты кадров : Постоянный
Частота кадров : 23,976 кадра/сек
Цветовое пространство : YUV
Субдискретизация насыщенности : 4:2:0
Битовая глубина : 8 бит
Тип развёртки : Прогрессивная
Бит/(Пиксели*Кадры) : 0.388
Размер потока : 6,13 Гбайт (90%)
Заголовок : Откинь гигантскую тень / Cast a Giant Shadow (1966) BDRip 720p - KORSAR
Библиотека кодирования : x264 core 152 r2851kMod ba24899
Настройки программы : cabac=1 / ref=12 / deblock=1:-3:-3 / analyse=0x3:0x113 / me=umh / subme=11 / psy=1 / fade_compensate=0.00 / psy_rd=1.00:0.02 / mixed_ref=1 / me_range=48 / chroma_me=1 / trellis=2 / 8x8dct=1 / cqm=0 / deadzone=21,11 / fast_pskip=0 / chroma_qp_offset=-3 / threads=12 / lookahead_threads=3 / sliced_threads=0 / nr=0 / decimate=0 / interlaced=0 / bluray_compat=0 / constrained_intra=0 / bframes=10 / b_pyramid=2 / b_adapt=2 / b_bias=0 / direct=3 / weightb=1 / open_gop=0 / weightp=2 / keyint=240 / keyint_min=23 / scenecut=40 / intra_refresh=0 / rc_lookahead=60 / rc=2pass / mbtree=0 / bitrate=6500 / ratetol=1.0 / qcomp=0.66 / qpmin=0 / qpmax=39 / qpstep=4 / cplxblur=20.0 / qblur=0.5 / vbv_maxrate=50000 / vbv_bufsize=62500 / nal_hrd=none / filler=0 / ip_ratio=1.25 / pb_ratio=1.30 / aq=3:0.80
Язык : English
Default : Да
Forced : Нет
Основные цвета : BT.709
Характеристики трансфера : BT.709
Коэффициенты матрицы : BT.709

Аудио #1
Идентификатор : 2
Формат : AC-3
Формат/Информация : Audio Coding 3
Расширение режима : CM (complete main)
Параметр Endianness формата : Big
Идентификатор кодека : A_AC3
Продолжительность : 2 ч. 17 м.
Вид битрейта : Постоянный
Битрейт : 192 Кбит/сек
Каналы : 2 канала
Расположение каналов : Front: L R
Частота : 48,0 КГц
Битовая глубина : 16 бит
Метод сжатия : С потерями
Размер потока : 189 Мбайт (3%)
Заголовок : DVO
Язык : Russian
Default : Да
Forced : Нет

Аудио #2
Идентификатор : 3
Формат : AC-3
Формат/Информация : Audio Coding 3
Расширение режима : CM (complete main)
Параметр Endianness формата : Big
Идентификатор кодека : A_AC3
Продолжительность : 2 ч. 17 м.
Вид битрейта : Постоянный
Битрейт : 192 Кбит/сек
Каналы : 2 канала
Расположение каналов : Front: L R
Частота : 48,0 КГц
Битовая глубина : 16 бит
Метод сжатия : С потерями
Размер потока : 189 Мбайт (3%)
Заголовок : DVO
Язык : Russian
Default : Нет
Forced : Нет

Аудио #3
Идентификатор : 4
Формат : AC-3
Формат/Информация : Audio Coding 3
Расширение режима : CM (complete main)
Параметр Endianness формата : Big
Идентификатор кодека : A_AC3
Продолжительность : 2 ч. 17 м.
Вид битрейта : Постоянный
Битрейт : 192 Кбит/сек
Каналы : 2 канала
Расположение каналов : Front: L R
Частота : 48,0 КГц
Битовая глубина : 16 бит
Метод сжатия : С потерями
Размер потока : 189 Мбайт (3%)
Язык : English
Default : Нет
Forced : Нет

Текст #1
Идентификатор : 5
Формат : UTF-8
Идентификатор кодека : S_TEXT/UTF8
Идентификатор кодека/Информация : UTF-8 Plain Text
Язык : Russian
Default : Нет
Forced : Нет

Текст #2
Идентификатор : 6
Формат : UTF-8
Идентификатор кодека : S_TEXT/UTF8
Идентификатор кодека/Информация : UTF-8 Plain Text
Язык : English
Default : Нет
Forced : Нет

Меню
00:00:00.000 : en:Chapter 01
00:02:41.077 : en:Chapter 02
00:22:01.695 : en:Chapter 03
00:37:07.642 : en:Chapter 04
00:51:35.092 : en:Chapter 05
01:01:25.390 : en:Chapter 06
01:11:27.449 : en:Chapter 07
01:27:11.601 : en:Chapter 08
01:38:34.783 : en:Chapter 09
01:56:27.981 : en:Chapter 10
02:10:45.337 : en:Chapter 11
02:17:55.225 : en:Chapter 12


Скриншоты

 

Вложения

  • 35 KB Просмотры: 0
    Личеров 0
    Сидеров 0
    Файлов 1
    Объем 6,8 GB
Ваш e-mail не будет опубликован. Он потребуется для подтверждения Вашего поста.
Оформление текста Нажмите «Ввод», чтобы отправить ответ.