За сегодня опубликовано 0 новых материалов.
Инструкция новичку Путеводитель по форуму Прокси для Telegram Показать подсказки , это бомба!

Скачать Остров / Island [01-06 из 12] (2018) WEBRip 720p | Persona99 бесплатно через торрент

  • Получай до 480 рублей за каждого приглашенного пользователя!
    представляем Вам очередное расширение партнерской программы, подробности описаны тут -> ссылка
  • 90% материалов доступно к скачиванию после простой регистрации!
    Если же ты хочешь скачивать материалы без требования оставлять отзывы то получи группу "Новичок", 10 способов повышения описаны тут -> ссылка
  • К сожалению количество битых ссылок растет и мы уже не можем их оперативно восстанавливать поэтому просим помощи у каждого нашего пользователя.
    С сегодняшнего дня, за каждую восстановленную ссылку мы заплатим Вам.
    Подробнее тут -> ссылка
  • Перенесем твои заслуги с другого ресурса!
    Мы понимаем как сложно прокачивать аккаунты на форумах, вроде раскачал аккаунт, а тут появляется ресурс в 100 раз круче но тоже с системой прокачки и снова качать аккаунт...
    Предлагаем вам перенести Ваши заслуги на другом подобном ресурсе к нам.
    Подробности описаны тут -> ссылка
  • Вы можете получать по 2.5% с каждой покупки и продажи на маркете! Подробности в теме Партнёрская программа

Torrent_Bot

Торрент-Бот
Бот форума
4 Окт 2016
125
31
20
Информация о фильме

Название : Остров
Оригинальное название : Island / アイランド
Год выхода : 2018
Тип: TV
Жанр :Драма, Фантастика
Режиссер : Кавагути Кэйитиро


Описание : События сериала разворачивается на острове Урасима, который находится далеко от материка. В прошлом люди, живущие на этом острове, вели совсем беззаботную жизнь. Но пять лет назад три великие семьи острова потерпели ряд неудач, из-за чего на них обрушилось много подозрений со стороны жителей. Люди начали обрывать все связи с материком, и вся культура острова пришла в упадок. Ключ к спасению острова таится в трех девушках, принадлежащих этим семействам. Но они связаны древними традициями и не должны конфликтовать между собой. В это непростое время на берег острова выбрасывает одинокого мужчину. Без имени, но с четким стремлением — он утверждает, что прибыл из будущего, чтобы помочь, и начинает одинокую борьбу ради изменения судьбы Урасимы.


world-art | MyAnimeList | Офиц. Сайт


Страна : Япония
Производство : Feel
Продолжительность : 12 эпизодов по ~00:24:00
Перевод: Любительский (одноголосый, закадровый)

Перевод:

Русские субтитры:
Переводчик: Crunchyroll

Озвучка:Get Smart Group
- одноголосая (жен.): Persona99
По переводу: z2h
Тех. работы: Дмитрий Леманн




Автор рипа: HorribleSubs


Файл
Качество : WEBRip
Тип релиза: Без хардсаба
Формат видео: MKV
Наличие линковки: Нет

Видео: AVC, 1280x720 (16:9), 1699 kbps, 23.976 fps, 8bit
Аудио 1: Русский, AC3, 192 Кбит/с, 48.0 kHz, 2 ch (в составе контейнера)
Аудио 2: Японский, AС3, 192 Кбит/с, 48.0 kHz, 2 ch (в составе контейнера)
Субтитры 1 (ASS): Русские (в составе контейнера) - Надписи
Субтитры 2 (ASS): Русские (в составе контейнера) - Полные
Субтитры 3 (ASS): Английские (в составе контейнера) - Перевод: Crunchyroll

Список эпизодов
01. Вот мы и встретились / We Meet Again
02. Не надо сожалений / I Don`t Want You to Feel Bad
03. Правильный способ спрятать мечту / The Right Way to Spin Dreams
04. Наш мир сплошная загадка / This World Is Full of Secrets
05. Поэтому я тебе верю / That`s Why I Trust You
06. Лишь бы там был ты / As Long As You Are There
Скриншоты




MediaInfo
General
Unique ID : 219213200319296943306804221330296392607 (0xA4EAED3A3E919B81B58319525E03CB9F)
Complete name : E:/Torrent_2/Island (2018, AVC WEBRip-720p, RUS JAP+SUB)/[HorribleSubs] Island - 01 [720p] [Persona99.GSG].mkv
Format : Matroska
Format version : Version 2
File size : 360 MiB
Duration : 23mn 40s
Overall bit rate : 2 125 Kbps
Encoded date : UTC 2018-08-01 07:33:52
Writing application : mkvmerge v5.5.0 ('Healer') built on Apr 6 2012 21:43:24
Writing library : libebml v1.2.3 + libmatroska v1.3.0
Attachment : Yes

Video #1
ID : 1
Format : AVC
Format/Info : Advanced Video Codec
Format profile : [email protected]
Format settings, CABAC : Yes
Format settings, ReFrames : 6 frames
Codec ID : V_MPEG4/ISO/AVC
Duration : 23mn 40s
Bit rate : 1 699 Kbps
Width : 1 280 pixels
Height : 720 pixels
Display aspect ratio : 16:9
Frame rate mode : Constant
Frame rate : 23.976 fps
Color space : YUV
Chroma subsampling : 4:2:0
Bit depth : 8 bits
Scan type : Progressive
Bits/(Pixel*Frame) : 0.077
Stream size : 288 MiB (80%)
Writing library : x264 core 142
Encoding settings : cabac=1 / ref=6 / deblock=1:1:1 / analyse=0x3:0x113 / me=umh / subme=8 / psy=1 / psy_rd=0.40:0.00 / mixed_ref=1 / me_range=16 / chroma_me=1 / trellis=1 / 8x8dct=1 / cqm=0 / deadzone=21,11 / fast_pskip=1 / chroma_qp_offset=-2 / threads=10 / lookahead_threads=1 / sliced_threads=0 / nr=0 / decimate=1 / interlaced=0 / bluray_compat=0 / constrained_intra=0 / bframes=3 / b_pyramid=2 / b_adapt=2 / b_bias=0 / direct=3 / weightb=1 / open_gop=0 / weightp=2 / keyint=48 / keyint_min=24 / scenecut=40 / intra_refresh=0 / rc_lookahead=48 / rc=crf / mbtree=1 / crf=15.0 / qcomp=0.60 / qpmin=0 / qpmax=69 / qpstep=4 / vbv_maxrate=4000 / vbv_bufsize=6000 / crf_max=0.0 / nal_hrd=none / filler=0 / ip_ratio=1.40 / aq=1:0.60
Language : Japanese
Default : Yes
Forced : No

Audio #2
ID : 2
Format : AC-3
Format/Info : Audio Coding 3
Mode extension : CM (complete main)
Format settings, Endianness : Big
Codec ID : A_AC3
Duration : 23mn 40s
Bit rate mode : Constant
Bit rate : 192 Kbps
Channel(s) : 2 channels
Channel positions : Front: L R
Sampling rate : 48.0 KHz
Bit depth : 16 bits
Compression mode : Lossy
Stream size : 32.5 MiB (9%)
Title : Persona99 [Get Smart Group]
Language : Russian
Default : Yes
Forced : No

Audio #3
ID : 3
Format : AC-3
Format/Info : Audio Coding 3
Mode extension : CM (complete main)
Format settings, Endianness : Big
Codec ID : A_AC3
Duration : 23mn 40s
Bit rate mode : Constant
Bit rate : 192 Kbps
Channel(s) : 2 channels
Channel positions : Front: L R
Sampling rate : 48.0 KHz
Bit depth : 16 bits
Compression mode : Lossy
Stream size : 32.5 MiB (9%)
Language : Japanese
Default : No
Forced : No

Text #4
ID : 4
Format : ASS
Codec ID : S_TEXT/ASS
Codec ID/Info : Advanced Sub Station Alpha
Compression mode : Lossless
Title : Надписи
Language : Russian
Default : Yes
Forced : No

Text #5
ID : 5
Format : ASS
Codec ID : S_TEXT/ASS
Codec ID/Info : Advanced Sub Station Alpha
Compression mode : Lossless
Title : Полные
Language : Russian
Default : No
Forced : No

Text #6
ID : 6
Format : ASS
Codec ID : S_TEXT/ASS
Codec ID/Info : Advanced Sub Station Alpha
Compression mode : Lossless
Language : English
Default : No
Forced : No
 

Вложения

  • 13,1 KB Просмотры: 0
    Личеров 0
    Сидеров 0
    Файлов 6
    Объем 2,3 GB
Ваш e-mail не будет опубликован. Он потребуется для подтверждения Вашего поста.
Оформление текста Нажмите «Ввод», чтобы отправить ответ.