За сегодня опубликовано 3 новых материалов.
Инструкция новичку Путеводитель по форуму Прокси для Telegram Показать подсказки , это бомба!

Скачать Особо опасны / Savages (2012) BDRip 720p | D, A | Расширенная версия бесплатно через торрент

  • Получай до 480 рублей за каждого приглашенного пользователя!
    представляем Вам очередное расширение партнерской программы, подробности описаны тут -> ссылка
  • 90% материалов доступно к скачиванию после простой регистрации!
    Если же ты хочешь скачивать материалы без требования оставлять отзывы то получи группу "Новичок", 10 способов повышения описаны тут -> ссылка
  • К сожалению количество битых ссылок растет и мы уже не можем их оперативно восстанавливать поэтому просим помощи у каждого нашего пользователя.
    С сегодняшнего дня, за каждую восстановленную ссылку мы заплатим Вам.
    Подробнее тут -> ссылка
  • Перенесем твои заслуги с другого ресурса!
    Мы понимаем как сложно прокачивать аккаунты на форумах, вроде раскачал аккаунт, а тут появляется ресурс в 100 раз круче но тоже с системой прокачки и снова качать аккаунт...
    Предлагаем вам перенести Ваши заслуги на другом подобном ресурсе к нам.
    Подробности описаны тут -> ссылка
  • Вы можете получать по 2.5% с каждой покупки и продажи на маркете! Подробности в теме Партнёрская программа
Если Вы не хотите скачивать, Вы всегда можете посмотреть онлайн, просто нажмите кнопку ниже :

Открыть плеер

Torrent_Bot

Торрент-Бот
Бот форума
4 Окт 2016
125
29
20



Название: Особо опасны
Оригинальное название: Savages
Год выпуска: 2012
Жанр:Триллер, драма, криминал, экранизация

Режиссер: Оливер Стоун

В ролях: Тейлор Китч, Блэйк Лайвли, Аарон Тейлор-Джонсон, Джон Траволта, Бенисио Дель Торо, Сальма Хайек, Эмиль Хирш, Демиан Бишир, Антонио Джарамилло, Хоакин Косио, Яна Бенкер, Кандра Дочерти, Патрик Фоурми, Гэри Стретч

О фильме:
Молодые миллионеры Бен и Чон ведут дела на побережье Калифорнии. Бен — выдающийся ботаник и талантливый бизнесмен, Чон — мастер возвращения долгов и борьбы с конкурентами. В их работе много сложных моментов, ведь они выращивают лучшую в мире траву. Особо серьезные проблемы решает знакомый агент ФБР. Но с одной не сможет помочь даже он. Сверхприбыльным бизнесом заинтересовался мексиканский картель. Его возглавляет прекрасная Елена, и она нашла главную слабость друзей — и Бен, и Чон принадлежат одной девушке. Ради прелестной О. они готовы на все. Любовь делает нас особо опасными. Экранизация по произведению: Дон Уилсон.




Выпущено: США, Ixtlan Corporation, Onda Entertainment, Relativity Media
Продолжительность: 02:21:10
Перевод: Дублированный, авторский (одноголосый, закадровый)
Субтитры: Русские, английские

Качество: BDRip (720p)
Видео: AVC 1280x534 (2.40:1), 23.976 fps, ~6530 Kbps, 0.40 bit/pixel
Аудио #1: Russian DTS 6ch 48kHz 755Kbps | Dub BD CEE
Аудио #2: English AC3 6ch 48kHz 640Kbps | Original
Аудио #3: Russian AC3 6ch 48kHz 640Kbps | AVO Гаврилов (отдельным файлом)
Аудио #4: Russian AC3 6ch 48kHz 640Kbps | AVO Сербин (отдельным файлом)
Аудио #5: Russian AC3 6ch 48kHz 640Kbps | VO Дасевич (отдельным файлом)

MI
Общее
Уникальный идентификатор : 186428353533792573812893957667448146734 (0x8C40CB7BA3F6F15989EC43D0B9CBCB2E)
Полное имя : D:ЗАГРУЗКИSavages.2012.UNRATED.720p.BluRay.x264.DD5.1.4xRus.Eng-CHDSavages.2012.UNRATED.720p.BluRay.x264.DD5.1.Rus.Eng-CHD.mkv
Формат : Matroska
Версия формата : Version 4
Размер файла : 7,83 Гбайт
Продолжительность : 2 ч. 21 м.
Общий поток : 7940 Кбит/сек
Название фильма : Savages.2012.UNRATED.720p.BluRay.x264.DD5.1.Rus.Eng-CHD
Дата кодирования : UTC 2013-09-21 06:56:45
Программа кодирования : mkvmerge v6.2.0 ('Promised Land') built on Apr 28 2013 12:22:01
Библиотека кодирования : libebml v1.3.0 + libmatroska v1.4.0

Видео
Идентификатор : 1
Формат : AVC
Формат/Информация : Advanced Video Codec
Профиль формата : [email protected]
Настройки формата : CABAC / 11 Ref Frames
Параметр CABAC формата : Да
Параметр RefFrames формата : 11 кадров
Идентификатор кодека : V_MPEG4/ISO/AVC
Продолжительность : 2 ч. 21 м.
Битрейт : 6530 Кбит/сек
Ширина : 1280 пикселей
Высота : 534 пикселя
Соотношение сторон : 2,40:1
Режим частоты кадров : Постоянный
Частота кадров : 23,976 кадра/сек
Цветовое пространство : YUV
Субдискретизация насыщенности : 4:2:0
Битовая глубина : 8 бит
Тип развёртки : Прогрессивная
Бит/(Пиксели*Кадры) : 0.398
Размер потока : 6,28 Гбайт (80%)
Заголовок : CHD
Библиотека кодирования : x264 core 125 r2200+677M 3a754e7
Настройки программы : cabac=1 / ref=11 / deblock=1:-3:-3 / analyse=0x3:0x113 / me=umh / subme=11 / psy=1 / fade_compensate=0.00 / psy_rd=1.10:0.15 / mixed_ref=1 / me_range=32 / chroma_me=1 / trellis=2 / 8x8dct=1 / cqm=0 / deadzone=21,11 / fast_pskip=0 / chroma_qp_offset=-2 / threads=12 / lookahead_threads=2 / sliced_threads=0 / nr=0 / decimate=1 / interlaced=0 / bluray_compat=0 / constrained_intra=0 / fgo=0 / bframes=6 / b_pyramid=2 / b_adapt=2 / b_bias=0 / direct=3 / weightb=1 / open_gop=0 / weightp=2 / keyint=250 / keyint_min=23 / scenecut=40 / intra_refresh=0 / rc_lookahead=40 / rc=2pass / mbtree=0 / bitrate=6530 / ratetol=1.0 / qcomp=0.60 / qpmin=0 / qpmax=69 / qpstep=4 / cplxblur=20.0 / qblur=0.5 / vbv_maxrate=40000 / vbv_bufsize=30000 / nal_hrd=none / ip_ratio=1.40 / pb_ratio=1.30 / aq=1:0.80
Язык : English
Default : Нет
Forced : Нет

Аудио #1
Идентификатор : 2
Формат : DTS
Формат/Информация : Digital Theater Systems
Идентификатор кодека : A_DTS
Продолжительность : 2 ч. 21 м.
Вид битрейта : Постоянный
Битрейт : 768 Кбит/сек
Каналы : 6 каналов
ChannelLayout : C L R Ls Rs LFE
Частота : 48,0 КГц
Частота кадров : 93,750 кадра/сек (512 SPF)
Битовая глубина : 24 бит
Метод сжатия : С потерями
Размер потока : 775 Мбайт (10%)
Заголовок : Dub
Язык : Russian
Default : Да
Forced : Нет

Аудио #2
Идентификатор : 3
Формат : AC-3
Формат/Информация : Audio Coding 3
Коммерческое название : Dolby Digital
Идентификатор кодека : A_AC3
Продолжительность : 2 ч. 21 м.
Вид битрейта : Постоянный
Битрейт : 640 Кбит/сек
Каналы : 6 каналов
ChannelLayout : L R C LFE Ls Rs
Частота : 48,0 КГц
Частота кадров : 31,250 кадров/сек (1536 SPF)
Битовая глубина : 16 бит
Метод сжатия : С потерями
Размер потока : 646 Мбайт (8%)
Заголовок : Original
Язык : English
ServiceKind/String : Complete Main
Default : Нет
Forced : Нет

Текст #1
Идентификатор : 4
Формат : UTF-8
Идентификатор кодека : S_TEXT/UTF8
Идентификатор кодека/Информация : UTF-8 Plain Text
Заголовок : Forced
Язык : Russian
Default : Да
Forced : Нет

Текст #2
Идентификатор : 5
Формат : UTF-8
Идентификатор кодека : S_TEXT/UTF8
Идентификатор кодека/Информация : UTF-8 Plain Text
Язык : Russian
Default : Нет
Forced : Нет

Текст #3
Идентификатор : 6
Формат : UTF-8
Идентификатор кодека : S_TEXT/UTF8
Идентификатор кодека/Информация : UTF-8 Plain Text
Заголовок : SDH
Язык : English
Default : Нет
Forced : Нет

Текст #4
Идентификатор : 7
Формат : UTF-8
Идентификатор кодека : S_TEXT/UTF8
Идентификатор кодека/Информация : UTF-8 Plain Text
Язык : English
Default : Нет
Forced : Нет

Меню
00:00:00.000 : en:Chapter 00
00:06:42.152 : en:Chapter 01
00:13:40.737 : en:Chapter 02
00:20:58.215 : en:Chapter 03
00:24:36.934 : en:Chapter 04
00:31:40.899 : en:Chapter 05
00:41:50.257 : en:Chapter 06
00:48:33.869 : en:Chapter 07
00:57:19.519 : en:Chapter 08
01:02:04.554 : en:Chapter 09
01:11:21.819 : en:Chapter 10
01:19:53.747 : en:Chapter 11
01:28:03.236 : en:Chapter 12
01:36:29.867 : en:Chapter 13
01:43:49.849 : en:Chapter 14
01:48:41.348 : en:Chapter 15
01:56:37.032 : en:Chapter 16
02:02:58.496 : en:Chapter 17
02:11:47.024 : en:Chapter 18
02:16:49.910 : en:Chapter 19
Скриншоты


 

Вложения

  • 49,9 KB Просмотры: 0
    Личеров 0
    Сидеров 0
    Файлов 4
    Объем 9,7 GB
Ваш e-mail не будет опубликован. Он потребуется для подтверждения Вашего поста.
Оформление текста Нажмите «Ввод», чтобы отправить ответ.