За сегодня опубликовано 15 новых материалов.
Инструкция новичку Путеводитель по форуму Прокси для Telegram Показать подсказки , это бомба!

Скачать Осенний марафон (1979) HDTVRip 1080р от KORSAR бесплатно через торрент

  • Получай до 480 рублей за каждого приглашенного пользователя!
    представляем Вам очередное расширение партнерской программы, подробности описаны тут -> ссылка
  • 90% материалов доступно к скачиванию после простой регистрации!
    Если же ты хочешь скачивать материалы без требования оставлять отзывы то получи группу "Новичок", 10 способов повышения описаны тут -> ссылка
  • К сожалению количество битых ссылок растет и мы уже не можем их оперативно восстанавливать поэтому просим помощи у каждого нашего пользователя.
    С сегодняшнего дня, за каждую восстановленную ссылку мы заплатим Вам.
    Подробнее тут -> ссылка
  • Перенесем твои заслуги с другого ресурса!
    Мы понимаем как сложно прокачивать аккаунты на форумах, вроде раскачал аккаунт, а тут появляется ресурс в 100 раз круче но тоже с системой прокачки и снова качать аккаунт...
    Предлагаем вам перенести Ваши заслуги на другом подобном ресурсе к нам.
    Подробности описаны тут -> ссылка
  • Вы можете получать по 2.5% с каждой покупки и продажи на маркете! Подробности в теме Партнёрская программа
Если Вы не хотите скачивать, Вы всегда можете посмотреть онлайн, просто нажмите кнопку ниже :

Открыть плеер

Torrent_Bot

Торрент-Бот
Бот форума
4 Окт 2016
125
32
20





Осенний марафон
Страна: СССР
Студия: Мосфильм
Жанр: Драма, мелодрама, комедия
Год выпуска: 1979
Продолжительность: 01:28:42
Режиссер: Георгий Данелия
В ролях: Олег Басилашвили, Наталья Гундарева, Евгений Леонов, Марина Неелова, Николай Крючков, Ольга Богданова, Борислав Брондуков, Владимир Фирсов, Владимир Грамматиков, Людмила Иванова, Норберт Кухинке, Галина Волчек...

Описание: У талантливого педагога и переводчика Бузыкина нерешительный характер. Он не может оставить жену и уйти к любимой женщине, не может отказать эксплуатирующей его талант сокурснице, терпит посещения доморощенного философа-алкаша, а когда, наконец, решается на смелый шаг — терпит фиаско, так как по природе мягок и податлив, как воск.…



Релиз от:

Качество: HDTVRip 1080р
Формат видео: MKV
Видео: MPEG-4 AVC, 1480x1080, 25 fps, 9495 Кбит/с
Аудио 1: AC-3; 16 bits 48 Khz; Mono 224 Kbps; CBR (DVD5 "КП")
Аудио 2: AC-3; 16 bits 48 Khz; 5.1ch 448 Kbps; CBR --"--
Субтитры: русские, английские, французские



Инфо файл
x264 [info]: frame I:663 Avg QP:17.43 size:269973
x264 [info]: frame P:24831 Avg QP:18.95 size:147068
x264 [info]: frame B:107601 Avg QP:21.23 size: 24393
x264 [info]: consecutive B-frames: 0.8% 0.8% 3.7% 6.0% 20.2% 60.4% 7.4% 0.3% 0.5% 0.0%
Общее
Уникальный идентификатор : 200780143819050317738717811866544716570 (0x970CD9600E570901B875E4198D5D3B1A)
Полное имя : D:Осенний марафон_1979-HDTVRip 1080p_KORSAR.mkv
Формат : Matroska
Версия формата : Version 2
Размер файла : 6,43 Гбайт
Продолжительность : 1 ч. 28 м.
Общий поток : 10,4 Мбит/сек
Название фильма : Осенний марафон_1979-HDTVRip 1080p_KORSAR
Дата кодирования : UTC 2019-04-17 10:49:48
Программа кодирования : mkvmerge v5.8.0 ('No Sleep / Pillow') built on Sep 2 2012 15:37:04
Библиотека кодирования : libebml v1.2.3 + libmatroska v1.3.0

Видео
Идентификатор : 1
Формат : AVC
Формат/Информация : Advanced Video Codec
Профиль формата : [email protected]
Параметр CABAC формата : Да
Параметр ReFrames формата : 5 кадров
Идентификатор кодека : V_MPEG4/ISO/AVC
Битрейт : 9495 Кбит/сек
Ширина : 1480 пикселей
Высота : 1080 пикселей
Соотношение сторон : 1,370
Режим частоты кадров : Переменный
Частота кадров в оригинале : 25,000 кадров/сек
Цветовое пространство : YUV
Субдискретизация насыщенности : 4:2:0
Битовая глубина : 8 бит
Тип развёртки : Прогрессивная
Библиотека кодирования : x264 core 152 r2851kMod ba24899
Настройки программы : cabac=1 / ref=5 / deblock=1:-2:-2 / analyse=0x3:0x113 / me=umh / subme=10 / psy=1 / fade_compensate=0.00 / psy_rd=1.05:0.10 / mixed_ref=1 / me_range=40 / chroma_me=1 / trellis=2 / 8x8dct=1 / cqm=0 / deadzone=21,11 / fast_pskip=1 / chroma_qp_offset=-3 / threads=12 / lookahead_threads=2 / sliced_threads=0 / nr=0 / decimate=1 / interlaced=0 / bluray_compat=0 / constrained_intra=0 / bframes=9 / b_pyramid=2 / b_adapt=2 / b_bias=0 / direct=1 / weightb=1 / open_gop=0 / weightp=2 / keyint=250 / keyint_min=25 / scenecut=40 / intra_refresh=0 / rc=crf / mbtree=0 / crf=18.3000 / qcomp=0.60 / qpmin=0 / qpmax=30 / qpstep=4 / ip_ratio=1.40 / pb_ratio=1.30 / aq=1:0.70
Язык : English
Default : Да
Forced : Нет
Основные цвета : BT.709
Характеристики трансфера : BT.709
Коэффициенты матрицы : BT.709

Аудио #1
Идентификатор : 2
Формат : AC-3
Формат/Информация : Audio Coding 3
Расширение режима : CM (complete main)
Параметр Endianness формата : Big
Идентификатор кодека : A_AC3
Продолжительность : 1 ч. 28 м.
Вид битрейта : Постоянный
Битрейт : 224 Кбит/сек
Каналы : 1 канал
Расположение каналов : Front: C
Частота : 48,0 КГц
Битовая глубина : 16 бит
Метод сжатия : С потерями
Размер потока : 142 Мбайт (2%)
Язык : Russian
Default : Да
Forced : Нет

Аудио #2
Идентификатор : 3
Формат : AC-3
Формат/Информация : Audio Coding 3
Расширение режима : CM (complete main)
Параметр Endianness формата : Big
Идентификатор кодека : A_AC3
Продолжительность : 1 ч. 28 м.
Вид битрейта : Постоянный
Битрейт : 448 Кбит/сек
Каналы : 6 каналов
Расположение каналов : Front: L C R, Side: L R, LFE
Частота : 48,0 КГц
Битовая глубина : 16 бит
Метод сжатия : С потерями
Размер потока : 284 Мбайт (4%)
Язык : Russian
Default : Нет
Forced : Нет

Текст #1
Идентификатор : 4
Формат : UTF-8
Идентификатор кодека : S_TEXT/UTF8
Идентификатор кодека/Информация : UTF-8 Plain Text
Язык : Russian
Default : Нет
Forced : Нет

Текст #2
Идентификатор : 5
Формат : UTF-8
Идентификатор кодека : S_TEXT/UTF8
Идентификатор кодека/Информация : UTF-8 Plain Text
Язык : English
Default : Нет
Forced : Нет

Текст #3
Идентификатор : 6
Формат : UTF-8
Идентификатор кодека : S_TEXT/UTF8
Идентификатор кодека/Информация : UTF-8 Plain Text
Язык : French
Default : Нет
Forced : Нет
Спасибо MIFAL за исходник.
 

Вложения

  • 33,1 KB Просмотры: 0
    Личеров 0
    Сидеров 0
    Файлов 1
    Объем 6,4 GB
Ваш e-mail не будет опубликован. Он потребуется для подтверждения Вашего поста.
Оформление текста Нажмите «Ввод», чтобы отправить ответ.