За сегодня опубликовано 14 новых материалов.
Инструкция новичку Путеводитель по форуму Прокси для Telegram Показать подсказки , это бомба!

Скачать Однажды в Лондоне / Once Upon a Time in London (2019) WEB-DL 720p | HDRezka Studio бесплатно через торрент

  • Получай до 480 рублей за каждого приглашенного пользователя!
    представляем Вам очередное расширение партнерской программы, подробности описаны тут -> ссылка
  • 90% материалов доступно к скачиванию после простой регистрации!
    Если же ты хочешь скачивать материалы без требования оставлять отзывы то получи группу "Новичок", 10 способов повышения описаны тут -> ссылка
  • К сожалению количество битых ссылок растет и мы уже не можем их оперативно восстанавливать поэтому просим помощи у каждого нашего пользователя.
    С сегодняшнего дня, за каждую восстановленную ссылку мы заплатим Вам.
    Подробнее тут -> ссылка
  • Перенесем твои заслуги с другого ресурса!
    Мы понимаем как сложно прокачивать аккаунты на форумах, вроде раскачал аккаунт, а тут появляется ресурс в 100 раз круче но тоже с системой прокачки и снова качать аккаунт...
    Предлагаем вам перенести Ваши заслуги на другом подобном ресурсе к нам.
    Подробности описаны тут -> ссылка
  • Вы можете получать по 2.5% с каждой покупки и продажи на маркете! Подробности в теме Партнёрская программа
Если Вы не хотите скачивать, Вы всегда можете посмотреть онлайн, просто нажмите кнопку ниже :

Открыть плеер

Torrent_Bot

Торрент-Бот
Бот форума
4 Окт 2016
125
31
20



Информация о фильме
Название: Однажды в Лондоне
Оригинальное название: Once Upon a Time in London
Год выхода: 2019
Жанр: Криминал, триллер
Режиссер: Саймон Рамли
В ролях: Холли Эрл, Доминик Китинг, Джофф Белл, Лео Грегори, Джейми Формен, Майкл МакКелл, Энди Беквит, Даг Аллен, Кейт Брейтуэйт, Терри Стоун

О фильме:
Действие разворачивается вокруг двух самых опасных бандитов Лондона — Джека Комера и Билли Хилла, которые совместными усилиями попытались взять под контроль весь преступный мир города в середине двадцатого века. Сметая все на своем пути, они построили целую империю, в основу которой легли бесчисленные трупы их конкурентов. Комер и Хилл грабили, убивали, закатывали бесконечные вечеринки с наркотиками и алкоголем, однако это не могло продолжаться вечно. В итоге гангстеры нажили столько врагов, что за ними развернулась настоящая охота, как со стороны полиции, так и со стороны преступных группировок...



Страна: Великобритания
Студия: Gateway Films
Продолжительность: 01:51:07
Перевод: Профессиональный многоголосый | HDRezka Studio

Файл
Кодек: AVC
Качество: WEB-DL 720p | Once.Upon.a.Time.in.London.2019.720p.AMZN.WEB-DL.DDP5.1.H.264-NTG
Видео: MPEG-4 AVC, 2040 Kбит/с, 1280x720, 24.000 кадр/с
Звук: ► Без Рекламы!
Аудио #1: Русский (АС3, 2ch, 192 Кбит/с, 48.0 KHz) Профессиональный (многоголосый, закадровый) HDRezka Studio
Аудио #2: Английский (E-AC3, 6ch, 640 Кбит/с, 48.0 KHz)
Субтитры: нет
Трейлер
MediaInfo
Источник: Once.Upon.a.Time.in.London.2019.720p.AMZN.WEB-DL.DDP5.1.H.264-NTG
General
Unique ID : 187844026999108372274451842447050115317 (0x8D517192DCADEEACA951B580346588F5)
Complete name : Once.Upon.a.Time.in.London.2019.WEB-DL.720p.mkv
Format : Matroska
Format version : Version 4
File size : 2.23 GiB
Duration : 1 h 51 min
Overall bit rate mode : Constant
Overall bit rate : 2 874 kb/s
Encoded date : UTC 2019-05-16 07:43:06
Writing application : mkvmerge v7.1.0 ('Good Love') 64bit built on Jul 27 2014 13:06:55
Writing library : libebml v1.3.0 + libmatroska v1.4.1

Video
ID : 1
Format : AVC
Format/Info : Advanced Video Codec
Format profile : [email protected]
Format settings : CABAC / 4 Ref Frames
Format settings, CABAC : Yes
Format settings, ReFrames : 4 frames
Codec ID : V_MPEG4/ISO/AVC
Duration : 1 h 51 min
Bit rate mode : Constant
Bit rate : 2 040 kb/s
Nominal bit rate : 6 000 kb/s
Width : 1 280 pixels
Height : 720 pixels
Display aspect ratio : 16:9
Frame rate mode : Constant
Frame rate : 24.000 FPS
Color space : YUV
Chroma subsampling : 4:2:0
Bit depth : 8 bits
Scan type : Progressive
Bits/(Pixel*Frame) : 0.092
Stream size : 1.58 GiB (71%)
Language : English
Default : Yes
Forced : No
Color range : Limited
Color primaries : BT.709
Transfer characteristics : BT.709
Matrix coefficients : BT.709

Audio #1
ID : 2
Format : AC-3
Format/Info : Audio Coding 3
Commercial name : Dolby Digital
Codec ID : A_AC3
Duration : 1 h 51 min
Bit rate mode : Constant
Bit rate : 192 kb/s
Channel(s) : 2 channels
Channel layout : L R
Sampling rate : 48.0 kHz
Frame rate : 31.250 FPS (1536 SPF)
Bit depth : 16 bits
Compression mode : Lossy
Stream size : 153 MiB (7%)
Title : MVO | HDRezka Studio
Language : Russian
Service kind : Complete Main
Default : Yes
Forced : No

Audio #2
ID : 3
Format : E-AC-3
Format/Info : Enhanced AC-3
Commercial name : Dolby Digital Plus
Codec ID : A_EAC3
Duration : 1 h 51 min
Bit rate mode : Constant
Bit rate : 640 kb/s
Channel(s) : 6 channels
Channel layout : L R C LFE Ls Rs
Sampling rate : 48.0 kHz
Frame rate : 31.250 FPS (1536 SPF)
Compression mode : Lossy
Stream size : 509 MiB (22%)
Language : English
Service kind : Complete Main
Default : No
Forced : No
Скриншоты
 

Вложения

  • 12,1 KB Просмотры: 0
    Личеров 0
    Сидеров 0
    Файлов 1
    Объем 2,2 GB
Ваш e-mail не будет опубликован. Он потребуется для подтверждения Вашего поста.
Оформление текста Нажмите «Ввод», чтобы отправить ответ.