За сегодня опубликовано 6 новых материалов.
Инструкция новичку Путеводитель по форуму Прокси для Telegram Показать подсказки , это бомба!

Скачать Ниндзя из Беверли Хиллз / Beverly Hills Ninja (1997) WEB-DLRip-AVC | P бесплатно через торрент

  • 90% материалов доступно к скачиванию после простой регистрации!
    Если же ты хочешь скачивать материалы без требования оставлять отзывы то получи группу "Новичок", 10 способов повышения описаны тут -> ссылка
  • К сожалению количество битых ссылок растет и мы уже не можем их оперативно восстанавливать поэтому просим помощи у каждого нашего пользователя.
    С сегодняшнего дня, за каждую восстановленную ссылку мы заплатим Вам.
    Подробнее тут -> ссылка
  • Перенесем твои заслуги с другого ресурса!
    Мы понимаем как сложно прокачивать аккаунты на форумах, вроде раскачал аккаунт, а тут появляется ресурс в 100 раз круче но тоже с системой прокачки и снова качать аккаунт...
    Предлагаем вам перенести Ваши заслуги на другом подобном ресурсе к нам.
    Подробности описаны тут -> ссылка
  • Вы можете получать по 2.5% с каждой покупки и продажи на маркете! Подробности в теме Партнёрская программа
Если Вы не хотите скачивать, Вы всегда можете посмотреть онлайн, просто нажмите кнопку ниже :

Открыть плеер

Torrent_Bot

Торрент-Бот
Бот форума
4 Окт 2016
125
22
20



Информация о фильме
Название: Ниндзя из Беверли Хиллз
Оригинальное название: Beverly Hills Ninja
Год выхода: 1997
Жанр: Боевик, комедия
Режиссер: Деннис Дуган
В ролях: Крис Фарли, Николлетт Шеридан, Натаниель Паркер, Сун-Тек Ох, Крис Рок, Робин Шу, Кит Кук Хирабаяси, Франсуа Чау, Дэйл Исимото, Да Минг Чен, Берт Булосб Кертис Бланк, Том Бэйли, Джейсон Дж. Тобин, Ричард Кляйн, Анна Матиас, Натан Юнг, Джон Фарли, Джерри Дель Сол, Синтия Эллисон, Франческа Каппуччи, Хидео Кимура, Джеймс Лэйн

О фильме:
Ниндзя - таинственный, пугающий и очень хитрый воин тьмы, который ничего не боится и не поддается контролю. Таким хотел видеть своего приемного сына наставник ниндзя, случайно подобрав младенца в лесу. И хотя из него и вырос толстый болван, он все равно должен стать воином и выполнить миссию ниндзя - вызволить из беды голливудскую красотку. Но здесь, в Беверли Хиллз, ему приходится столкнуться с настоящими убийцами, которые знают тайны кунг-фу получше его, и сразиться с ними, как бы это смешно ни выглядело при его умении, а главное, весе. А что их этого вышло - Вы узнаете, посмотрев до конца фильм Ниндзя из Беверли Хиллз - приключения толстого неумехи, вообразившего себя Великим Белым Ниндзя из древней легенды.



Страна: США
Студия: Beverly Hills Ninja Productions, Motion Picture Corporation of America
Продолжительность: 01:28:38
Перевод: Профессиональный (многоголосый, закадровый)
Субтитры: Русские, английские

Файл
Формат: Matroska
Качество: WEB-DLRip-AVC
Видео: 1024x576 at 23.976 fps, x264, ~2886 kbps
Аудио №1: AC3 , 2 ch, ~192 kbps | RUS / MVO / РТР-ТНТ-СТС-Первый HD
Аудио №2: AC3 , 6 ch, ~448 kbps | RUS / MVO / Видеосервис
Формат субтитров: softsub (SRT)

***Релиз от:-=DoMiNo=-



M/I
General
Unique ID : 175494632243699612692918876171906123204 (0x840709674047C466CD5FD5DC0ED905C4)
Complete name : Ниндзя из Беверли Хиллз.(1997).WEB-DLRip-AVC.O.M.[-=DoMiNo=-].mkv
Format : Matroska
Format version : Version 4
File size : 2.18 GiB
Duration : 1 h 28 min
Overall bit rate : 3 526 kb/s
Movie name : Ниндзя из Беверли Хиллз
Encoded date : UTC 2019-04-10 20:39:15
Writing application : mkvmerge v32.0.0 ('Astral Progressions') 64-bit
Writing library : libebml v1.3.7 + libmatroska v1.5.0
Attachments : poster

Video
ID : 1
Format : AVC
Format/Info : Advanced Video Codec
Format profile : [email protected]
Format settings : CABAC / 12 Ref Frames
Format settings, CABAC : Yes
Format settings, ReFrames : 12 frames
Codec ID : V_MPEG4/ISO/AVC
Duration : 1 h 28 min
Bit rate : 2 886 kb/s
Width : 1 024 pixels
Height : 576 pixels
Display aspect ratio : 16:9
Frame rate mode : Constant
Frame rate : 23.976 (24000/1001) FPS
Color space : YUV
Chroma subsampling : 4:2:0
Bit depth : 8 bits
Scan type : Progressive
Bits/(Pixel*Frame) : 0.204
Stream size : 1.78 GiB (82%)
Title : RIP_BY_-=DoMiNo=-
Writing library : x264 core 157 r2969 d4099dd
Encoding settings : cabac=1 / ref=12 / deblock=1:-2:-2 / analyse=0x3:0x133 / me=umh / subme=11 / psy=1 / psy_rd=0.90:0.00 / mixed_ref=1 / me_range=32 / chroma_me=1 / trellis=2 / 8x8dct=1 / cqm=0 / deadzone=21,11 / fast_pskip=0 / chroma_qp_offset=-2 / threads=6 / lookahead_threads=1 / sliced_threads=0 / nr=0 / decimate=1 / interlaced=0 / bluray_compat=0 / constrained_intra=0 / bframes=10 / b_pyramid=2 / b_adapt=2 / b_bias=0 / direct=3 / weightb=1 / open_gop=0 / weightp=2 / keyint=250 / keyint_min=24 / scenecut=40 / intra_refresh=0 / rc_lookahead=250 / rc=2pass / mbtree=1 / bitrate=2886 / ratetol=1.0 / qcomp=0.70 / qpmin=0 / qpmax=69 / qpstep=4 / cplxblur=20.0 / qblur=0.5 / vbv_maxrate=50000 / vbv_bufsize=62500 / nal_hrd=none / filler=0 / ip_ratio=1.40 / aq=3:1.00
Language : English
Default : Yes
Forced : No
Color range : Limited
Color primaries : BT.709
Transfer characteristics : BT.709
Matrix coefficients : BT.709

Audio #1
ID : 2
Format : AC-3
Format/Info : Audio Coding 3
Commercial name : Dolby Digital
Codec ID : A_AC3
Duration : 1 h 28 min
Bit rate mode : Constant
Bit rate : 192 kb/s
Channel(s) : 2 channels
Channel layout : L R
Sampling rate : 48.0 kHz
Frame rate : 31.250 FPS (1536 SPF)
Bit depth : 16 bits
Compression mode : Lossy
Stream size : 122 MiB (5%)
Title : MVO / РТР-ТНТ-СТС-Первый HD
Language : Russian
Service kind : Complete Main
Default : Yes
Forced : No

Audio #2
ID : 3
Format : AC-3
Format/Info : Audio Coding 3
Commercial name : Dolby Digital
Codec ID : A_AC3
Duration : 1 h 28 min
Bit rate mode : Constant
Bit rate : 448 kb/s
Channel(s) : 6 channels
Channel layout : L R C LFE Ls Rs
Sampling rate : 48.0 kHz
Frame rate : 31.250 FPS (1536 SPF)
Bit depth : 16 bits
Compression mode : Lossy
Stream size : 284 MiB (13%)
Title : MVO / Видеосервис
Language : Russian
Service kind : Complete Main
Default : No
Forced : No

Text #1
ID : 4
Format : UTF-8
Codec ID : S_TEXT/UTF8
Codec ID/Info : UTF-8 Plain Text
Duration : 1 h 23 min
Bit rate : 79 b/s
Count of elements : 850
Stream size : 48.5 KiB (0%)
Language : Russian
Default : No
Forced : No

Text #2
ID : 5
Format : UTF-8
Codec ID : S_TEXT/UTF8
Codec ID/Info : UTF-8 Plain Text
Duration : 1 h 27 min
Bit rate : 42 b/s
Count of elements : 849
Stream size : 27.3 KiB (0%)
Language : English
Default : No
Forced : No

Menu
00:00:00.000 : :Глава 1
00:08:08.488 : :Глава 2
00:15:38.938 : :Глава 3
00:22:05.324 : :Глава 4
00:30:59.858 : :Глава 5
00:37:14.232 : :Глава 6
00:42:20.538 : :Глава 7
00:51:59.116 : :Глава 8
01:00:41.638 : :Глава 9
01:07:26.042 : :Глава 10
01:14:56.492 : :Глава 11
01:20:46.842 : :Глава 12
Скриншоты

 

Вложения

  • 13,4 KB Просмотры: 0
    Личеров 0
    Сидеров 0
    Файлов 1
    Объем 2,2 GB
Ваш e-mail не будет опубликован. Он потребуется для подтверждения Вашего поста.
Оформление текста Нажмите «Ввод», чтобы отправить ответ.