За сегодня опубликовано 3 новых материалов.
Инструкция новичку Путеводитель по форуму Прокси для Telegram Показать подсказки , это бомба!

Скачать Не может быть! (1975) DVDRip от New Team бесплатно через торрент

  • Получай до 480 рублей за каждого приглашенного пользователя!
    представляем Вам очередное расширение партнерской программы, подробности описаны тут -> ссылка
  • 90% материалов доступно к скачиванию после простой регистрации!
    Если же ты хочешь скачивать материалы без требования оставлять отзывы то получи группу "Новичок", 10 способов повышения описаны тут -> ссылка
  • К сожалению количество битых ссылок растет и мы уже не можем их оперативно восстанавливать поэтому просим помощи у каждого нашего пользователя.
    С сегодняшнего дня, за каждую восстановленную ссылку мы заплатим Вам.
    Подробнее тут -> ссылка
  • Перенесем твои заслуги с другого ресурса!
    Мы понимаем как сложно прокачивать аккаунты на форумах, вроде раскачал аккаунт, а тут появляется ресурс в 100 раз круче но тоже с системой прокачки и снова качать аккаунт...
    Предлагаем вам перенести Ваши заслуги на другом подобном ресурсе к нам.
    Подробности описаны тут -> ссылка
  • Вы можете получать по 2.5% с каждой покупки и продажи на маркете! Подробности в теме Партнёрская программа
Если Вы не хотите скачивать, Вы всегда можете посмотреть онлайн, просто нажмите кнопку ниже :

Открыть плеер

Torrent_Bot

Торрент-Бот
Бот форума
4 Окт 2016
125
31
20
Год выпуска: 1975
Страна: СССР

Жанр: мелодрама, комедия
Продолжительность: 01:31:39
Перевод: Не требуется

Режиссер: Леонид Гайдай
Сценарий: Владлен Бахнов, Леонид Гайдай, Михаил Зощенко
Продюсер: Эрик Вайсберг
Оператор: Сергей Полуянов
Композитор: Александр Зацепин

В ролях: Михаил Пуговкин(завмаг Горбушкин (новелла «Преступление и наказание»)), Нина Гребешкова(Анна, жена Горбушкина (новелла «Преступление и наказание»)), Вячеслав Невинный(брат жены Горбушкина (новелла «Преступление и наказание»)), Михаил Светин(Виталий Борисович, сосед Горбушкина (новелла «Преступление и наказание»)), Наталья Селезнёва(Татьяна, жена Анатолия (новелла «Забавное приключение»)), Олег Даль(Анатолий Барыгин-Амурский, муж Татьяны (новелла «Забавное приключение»)), Светлана Крючкова(Зинаида, жена Николая (новелла «Забавное приключение»)), Евгений Жариков(Николай, муж Зинаиды (новелла «Забавное приключение»)), Лариса Еремина(Софья, подруга Зинаиды (новелла «Забавное приключение»)), Михаил Кокшенов(сосед Софьи (новелла «Забавное приключение»)), Леонид Куравлёв(Владимир Завитушкин, жених (новелла «Свадебное происшествие»)), Валентина Теличкина(Катерина, невеста (новелла «Свадебное происшествие»))



Мировая премьера: 23 октября 1975
Релиз на DVD: 11 января 2011, «Парадиз Медиа»


Описание: Фильм включает три новеллы о негативных явлениях провинциальной жизни молодой страны Советов: тупости, пьянстве, стяжательстве, бездуховности - всем том, что и сейчас существует благополучно и повсеместно.


Качество: DVDRip | Sample
Формат: AVI
Исходник: DVD5
Видео: XviD; 704x512 (1.375); 1810 Kbps; 25 fps; 0,201 bpp
Аудио: AC3; 448 Kbps; CBR; 6 ch


Знаете ли Вы, что...
Занимает по посещаемости 46-е место среди отечественных фильмов за всю историю советского кинопроката.
Скриншоты
d2f801e9f243674dfede2f6ce1443fa8.jpegfc7c6f4837810987c69251e227ff9a5d.jpegddf12f6e54cb08836ededff06613e916.jpegb66627b039ab4729d7182215ce696f92.jpeg
MI
General
Complete name : E:ФильмыNe_Mojet_bit_1975_DVDRip_[youtracker].avi
Format : AVI
Format/Info : Audio Video Interleave
File size : 1.45 GiB
Duration : 1h 31mn
Overall bit rate : 2 268 Kbps
Writing application : VirtualDubMod 1.5.10.3 | www.virtualdub-fr.org || (build 2550/release)
Writing library : VirtualDubMod build 2550/release

Video
ID : 0
Format : MPEG-4 Visual
Format profile : Advanced [email protected]
Format settings, BVOP : 2
Format settings, QPel : No
Format settings, GMC : No warppoints
Format settings, Matrix : Custom
Codec ID : XVID
Codec ID/Hint : XviD
Duration : 1h 31mn
Bit rate : 1 810 Kbps
Width : 704 pixels
Height : 512 pixels
Display aspect ratio : 1.375
Frame rate : 25.000 fps
Color space : YUV
Chroma subsampling : 4:2:0
Bit depth : 8 bits
Scan type : Progressive
Compression mode : Lossy
Bits/(Pixel*Frame) : 0.201
Stream size : 1.16 GiB (80%)
Writing library : XviD 65

Audio
ID : 1
Format : AC-3
Format/Info : Audio Coding 3
Mode extension : CM (complete main)
Codec ID : 2000
Duration : 1h 31mn
Bit rate mode : Constant
Bit rate : 448 Kbps
Channel(s) : 6 channels
Channel positions : Front: L C R, Side: L R, LFE
Sampling rate : 48.0 KHz
Bit depth : 16 bits
Compression mode : Lossy
Stream size : 294 MiB (20%)
Alignment : Split accross interleaves
Interleave, duration : 40 ms (1.00 video frame)
Interleave, preload duration : 500 ms
 

Вложения

Ваш e-mail не будет опубликован. Он потребуется для подтверждения Вашего поста.
Оформление текста Нажмите «Ввод», чтобы отправить ответ.