Инструкция новичку Путеводитель по форуму Прокси для Telegram Показать подсказки , это бомба!

Скачать Наследники Рабурдэна (1962) SATRip от New-Team бесплатно через торрент

Если Вы не хотите скачивать, Вы всегда можете посмотреть онлайн, просто нажмите кнопку ниже :

Открыть плеер

Torrent_Bot

Торрент-Бот
Бот форума
4 Окт 2016
120
13

Страна: СССР
Производство: Главная редакция литературно-драматических программ ЦТ

Жанр: комедия, телеспектакль
Год выпуска: 1962
Продолжительность: 01:29:23

Перевод: Не требуется
Cубтитры: нет
Оригинальная аудиодорожка: русский

Режиссер: Валентин Плучек, Евгений Весник

В ролях:
Евгений Весник, Нина Архипова, Анатолий Папанов, Ольга Аросева, Валентина Токарская, Георгий Менглет, Александр Белявский, Алексей Овечкин, Галина Степанова (II), Андрей Крюков...
Об актёрах подробней

Описание:
Телеспектакль Театра сатиры по одноименной комедии Эмиля Золя.
Время действия – 1870-е годы, Франция. Буржуа Рабурден промотал свое состояние, а родственники, не зная этого, делят несуществующее наследство. Сюжет прост, комичен, но вечные темы – деньги и взаимоотношения людей, истинная страстная любовь и бескорыстие.





Исходник: DVB
Качество видео: SATRip
Формат видео: AVI

Видео: 688x512 (4:3), 25,000 кадров/сек, XviD ~ 1542 kbps avg, 0.175 bit/pixel
Аудио: 48 kHz, Dolby Digital AC3 2.0, 192 kbps

Раздача от:
MediaInfo
Общее
Полное имя : Nasledniki.Raburdehna.1962.SATRip_[New-team]_by_AVP_Studio.avi
Формат : AVI
Формат/Информация : Audio Video Interleave
Размер файла : 1,09 Гбайт
Продолжительность : 1 ч. 29 м.
Общий поток : 1744 Кбит/сек
Программа кодирования : VirtualDubMod 1.5.10.3 | www.virtualdub-fr.org || (build 2550/release)
Библиотека кодирования : VirtualDubMod build 2550/release

Видео
Идентификатор : 0
Формат : MPEG-4 Visual
Профиль формата : Advanced [email protected]
Настройки формата : BVOP1 / Custom Matrix
Параметр BVOP формата : 1
Параметр QPel формата : Нет
Параметр GMC формата : Без точки перехода
Параметр матрицы формата : Выборочная
Идентификатор кодека : XVID
Идентификатор кодека/Подсказка : XviD
Продолжительность : 1 ч. 29 м.
Битрейт : 1542 Кбит/сек
Ширина : 688 пикселей
Высота : 512 пикселей
Соотношение сторон : 4:3
Частота кадров : 25,000 кадров/сек
Цветовое пространство : YUV
Субдискретизация насыщенности : 4:2:0
Битовая глубина : 8 бит
Тип развёртки : Прогрессивная
Метод сжатия : С потерями
Бит/(Пиксели*Кадры) : 0.175
Размер потока : 986 Мбайт (88%)
Библиотека кодирования : XviD 73

Аудио
Идентификатор : 1
Формат : AC-3
Формат/Информация : Audio Coding 3
Коммерческое название : Dolby Digital
Идентификатор кодека : 2000
Продолжительность : 1 ч. 29 м.
Вид битрейта : Постоянный
Битрейт : 192 Кбит/сек
Каналы : 2 канала
Channel layout : L R
Частота : 48,0 КГц
Частота кадров : 31,250 кадров/сек (1536 SPF)
Битовая глубина : 16 бит
Метод сжатия : С потерями
Размер потока : 123 Мбайт (11%)
Выравнивание : Разделение по промежуткам
Продолжительность промежутка : 40 мс. (1,00 видеокадр)
Время предзагрузки промежутка : 500 мс.
Скриншоты
 

Вложения

  • 12,3 KB Просмотры: 0
    Личеров 0
    Сидеров 0
    Файлов 1
    Объем 1,1 GB
Ваш e-mail не будет опубликован. Он потребуется для подтверждения Вашего поста.
Оформление текста Нажмите «Ввод», чтобы отправить ответ.

Привет!

Мы группа людей которые решили помочь другим в решении их проблем, а так же пользователям с поиском самых свежих и качественных инфопродуктов. За 4 с небольшим месяца мы создали этот форум на который заходят ежедневно тысячи человек и посещаемость постоянно растёт. Мы создали панель лицензирования для защиты PHP скриптов от воровства и SEO панель для мониторинга наших сайтов и выбора верной стратегии их развития. Мы надеемся что то что мы создали пригодится Вам и возможно Вы поможете нам развиваться и совершенствоваться вместе с Вами.

Статистика форума

Темы
338.378
Сообщения
361.153
Пользователи
25.853
Новый пользователь
Mendreak

Приложения форума для iOS и Android


У ркн там нет власти ;)
Гостевуха
Помощь Пользователи
  • K Chat Bot:
    Гость kkifkaa присоединился к комнате.
  • K (Гость) kkifkaa:
    Всем привет!
    Цитата
  • K (Гость) kkifkaa:
    mizaider тут есть?
    Цитата
  • K Chat Bot:
    Гость kkifkaa присоединился к комнате.
  • K (Гость) kkifkaa:
    Здравствуйте уважаемые члены форума. Подскажите пож-та, что можно сделать если я был заблокирован якобы за: «Вы были заблокированы по следующей причине: Копирование материалов на другие ресурсы». Самое страшное, то что тебя обвиняют и не дают возможность пообщаться и разобраться в причинах. Кстати в такой ситуации может быть каждый из нас. Вот так стараешься размещаешь тут материал, а тебя без разбирательств в бан. И нет возможности обратится в тех поддержку т.к. твой аккаут заблокирован. Подскажите пож-та, как можно связаться с администрацией, чтобы была проведена проверка? Сейчас я новичок и как раз в этот день для нас заливал на форум новые курсы (один залил, второй не успел). Я сначала подумал, что какой-то запрещений материал разместил, а потом понял, что меня обвинили в том, что я не делал.
    Цитата
  • K (Гость) kkifkaa:
    mizaider ты здесь помоги пожалуйста!
    Цитата
  • mizaider @ mizaider:
    Вопрос решен.
    Цитата
  • goodness @ goodness:
    Добрый вечер уважаемые форумчане!)
    Цитата
  • goodness @ goodness:
    Вопрос к администрации: Имеется одна точка доступа wifi на квартиру, вашим форумом пользуюсь пока что только я, но хотел бы зарегистрировать и свою девушку,
    Цитата
  • goodness @ goodness:
    система нас не забанит из-за того что мы с одной точки доступа но с разных устройств?
    Цитата
  • mizaider @ mizaider:
    Не забанит
    Цитата
  • Captain @ Captain:
    Батя в здание
    Цитата
  • 13SASHA13 @ 13SASHA13:
    Цитата
  • Uggi Chat Bot:
    Uggi покинул(а) комнату.
  • M Chat Bot:
    mr_robot_i2p покинул(а) комнату.
  • Captain @ Captain:
    Батя в здание
    Цитата
  • J Chat Bot:
    joker567 покинул(а) комнату.
  • Z Chat Bot:
    ztmm покинул(а) комнату.
    Z Chat Bot: ztmm покинул(а) комнату.