За сегодня опубликовано 3 новых материалов.
Инструкция новичку Путеводитель по форуму Прокси для Telegram Показать подсказки , это бомба!

Скачать Народный напев Цугару / Jongara / Tsugaru Folk Song / Tsugaru jongarabushi (1973) BDRip 1080p | L1 бесплатно через торрент

  • 90% материалов доступно к скачиванию после простой регистрации!
    Если же ты хочешь скачивать материалы без требования оставлять отзывы то получи группу "Новичок", 10 способов повышения описаны тут -> ссылка
  • К сожалению количество битых ссылок растет и мы уже не можем их оперативно восстанавливать поэтому просим помощи у каждого нашего пользователя.
    С сегодняшнего дня, за каждую восстановленную ссылку мы заплатим Вам.
    Подробнее тут -> ссылка
  • Перенесем твои заслуги с другого ресурса!
    Мы понимаем как сложно прокачивать аккаунты на форумах, вроде раскачал аккаунт, а тут появляется ресурс в 100 раз круче но тоже с системой прокачки и снова качать аккаунт...
    Предлагаем вам перенести Ваши заслуги на другом подобном ресурсе к нам.
    Подробности описаны тут -> ссылка
  • Вы можете получать по 2.5% с каждой покупки и продажи на маркете! Подробности в теме Партнёрская программа
Если Вы не хотите скачивать, Вы всегда можете посмотреть онлайн, просто нажмите кнопку ниже :

Открыть плеер

Torrent_Bot

Торрент-Бот
Бот форума
4 Окт 2016
125
23
20


Страна: Япония
Студия: Art Theatre Guild, Saito Koichi Production
Жанр: Драма
Год выпуска: 1973
Продолжительность: 01:42:37

Перевод: Любительский Одноголосый закадровый Виктор Береговых (по субтитрам дед_сто_лет)
Субтитры: Русские (дед_сто_лет), английские
Оригинальная аудиодорожка: японский

Режиссер: Коити Сайто / Koichi Saito
В ролях: Кёко Энами, Акира Ода, Михоко Накагава, Ко Нисимура, Кодзиро Хонго, Хидэо Сато, Минори Тэрада, Харуко Тода

Описание:
Исако Накасато вернулась в родные места, где её никто не ждет. Её отец и брат погибли в море, сосед Такадзо ненавидит её за то, что она сбежала из деревни с его сыном. Теперь она вернулась с парнем, который моложе её. Зачем она сюда приехала? Это спасение или гибель для всех?


Скачать сэмпл





Сан-Себастьян, 1974 год
Победитель:
- Премия Международной Католической организации в области кино (OCIC)



Тип релиза: BDRip 1080p
Контейнер: MKV

Видео: MPEG-4 AVC, 1920х804 (2,40:1), 23.976 fps, 9594 Kbps, [email protected]
Аудио 1: AC3, 48.0 KHz, 2.0 ch, 224 kbps, 16 bit | Одноголосый закадровый (Виктор Береговых)
Аудио 2: AАC, 48.0 KHz, 2.0 ch, 320 kbps, 16 bit | Японский
Формат субтитров: softsub (SRT)[/font][/size]
MediaInfo
Narodnyii.napev.Cugar.1973.BDRip.1080p.mkv
Формат : Matroska
Версия формата : Version 4 / Version 2
Размер файла : 7,27 Гбайт
Продолжительность : 1 ч. 42 м.
Общий поток : 10,1 Мбит/сек
Название фильма : Народный напев Цугару / Tsugaru jongarabushi (1973) BDRip (1080p)
Дата кодирования : UTC 2019-06-03 10:53:33
Программа кодирования : mkvmerge v34.0.0 ('Sight and Seen') 32-bit
Библиотека кодирования : libebml v1.3.7 + libmatroska v1.5.0

Видео
Идентификатор : 1
Формат : AVC
Формат/Информация : Advanced Video Codec
Профиль формата : [email protected]
Настройки формата : CABAC / 5 Ref Frames
Параметр CABAC формата : Да
Параметр RefFrames формата : 5 кадров
Идентификатор кодека : V_MPEG4/ISO/AVC
Продолжительность : 1 ч. 42 м.
Битрейт : 9594 Кбит/сек
Ширина : 1920 пикселей
Высота : 804 пикселя
Соотношение сторон : 2,40:1
Режим частоты кадров : Постоянный
Частота кадров : 23,976 (24000/1001) кадра/сек
Цветовое пространство : YUV
Субдискретизация насыщенности : 4:2:0
Битовая глубина : 8 бит
Тип развёртки : Прогрессивная
Бит/(Пиксели*Кадры) : 0.259
Размер потока : 6,88 Гбайт (95%)
Заголовок : Народный напев Цугару / Tsugaru jongarabushi (1973) BDRip (1080p)
Библиотека кодирования : x264 core 157 r2935 545de2f
Настройки программы : cabac=1 / ref=5 / deblock=1:-3:-3 / analyse=0x3:0x133 / me=umh / subme=10 / psy=1 / psy_rd=1.00:0.00 / mixed_ref=1 / me_range=32 / chroma_me=1 / trellis=2 / 8x8dct=1 / cqm=0 / deadzone=21,11 / fast_pskip=0 / chroma_qp_offset=-2 / threads=18 / lookahead_threads=4 / sliced_threads=0 / nr=0 / decimate=0 / interlaced=0 / bluray_compat=0 / constrained_intra=0 / bframes=16 / b_pyramid=2 / b_adapt=2 / b_bias=0 / direct=3 / weightb=1 / open_gop=0 / weightp=1 / keyint=240 / keyint_min=24 / scenecut=40 / intra_refresh=0 / rc_lookahead=60 / rc=crf / mbtree=0 / crf=19.0 / qcomp=0.60 / qpmin=0 / qpmax=69 / qpstep=4 / vbv_maxrate=62500 / vbv_bufsize=78125 / crf_max=0.0 / nal_hrd=none / filler=0 / ip_ratio=1.40 / pb_ratio=1.30 / aq=2:1.00
Язык : Japanese
Default : Да
Forced : Нет
Цветовой диапазон : Limited
Основные цвета : BT.709
Характеристики трансфера : BT.709
Коэффициенты матрицы : BT.709

Аудио #1
Идентификатор : 2
Формат : AC-3
Формат/Информация : Audio Coding 3
Идентификатор кодека : A_AC3
Продолжительность : 1 ч. 42 м.
Вид битрейта : Постоянный
Битрейт : 224 Кбит/сек
Каналы : 2 канала
Расположение каналов : Front: L R
Частота : 48,0 КГц
Частота кадров : 31,250 кадров/сек (1536 SPF)
Битовая глубина : 16 бит
Метод сжатия : С потерями
Размер потока : 164 Мбайт (2%)
Заголовок : Одноголосый закадровый (Виктор Береговых)
Язык : Russian
ServiceKind/String : Complete Main
Default : Да
Forced : Да

Аудио #2
Идентификатор : 3
Формат : AAC
Формат/Информация : Advanced Audio Codec
Профиль формата : LC
Идентификатор кодека : A_AAC-2
Продолжительность : 1 ч. 42 м.
Битрейт : 320 Кбит/сек
Каналы : 2 канала
Расположение каналов : Front: L R
Частота : 48,0 КГц
Частота кадров : 46,875 кадров/сек (1024 SPF)
Метод сжатия : С потерями
Размер потока : 235 Мбайт (3%)
Язык : Japanese
Default : Нет
Forced : Нет

Текст #1
Идентификатор : 4
Формат : UTF-8
Идентификатор кодека : S_TEXT/UTF8
Идентификатор кодека/Информация : UTF-8 Plain Text
Продолжительность : 1 ч. 42 м.
Битрейт : 41 бит/сек
ElementCount : 801
Размер потока : 30,8 Кбайт (0%)
Заголовок : дед_сто_лет
Язык : Russian
Default : Нет
Forced : Нет

Текст #2
Идентификатор : 5
Формат : UTF-8
Идентификатор кодека : S_TEXT/UTF8
Идентификатор кодека/Информация : UTF-8 Plain Text
Продолжительность : 1 ч. 42 м.
Битрейт : 21 бит/сек
ElementCount : 801
Размер потока : 16,0 Кбайт (0%)
Язык : English
Default : Нет
Forced : Нет

Меню
00:00:00.000 : :Chapter 1
00:13:50.997 : :Chapter 2
00:21:00.843 : :Chapter 3
00:30:38.503 : :Chapter 4
00:36:46.871 : :Chapter 5
00:44:32.044 : :Chapter 6
00:53:06.642 : :Chapter 7
00:59:59.054 : :Chapter 8
01:11:46.636 : :Chapter 9
01:20:41.086 : :Chapter 10
01:27:14.396 : :Chapter 11
01:36:28.324 : :Chapter 12
01:42:28.851 : :Chapter 13

Скриншоты
 

Вложения

  • 37,3 KB Просмотры: 0
    Личеров 0
    Сидеров 0
    Файлов 1
    Объем 7,3 GB
Ваш e-mail не будет опубликован. Он потребуется для подтверждения Вашего поста.
Оформление текста Нажмите «Ввод», чтобы отправить ответ.