За сегодня опубликовано 15 новых материалов.
Инструкция новичку Путеводитель по форуму Прокси для Telegram Показать подсказки , это бомба!

Скачать На последнем берегу / On the Beach (2000) DVDRip-AVC | P бесплатно через торрент

  • Получай до 480 рублей за каждого приглашенного пользователя!
    представляем Вам очередное расширение партнерской программы, подробности описаны тут -> ссылка
  • 90% материалов доступно к скачиванию после простой регистрации!
    Если же ты хочешь скачивать материалы без требования оставлять отзывы то получи группу "Новичок", 10 способов повышения описаны тут -> ссылка
  • К сожалению количество битых ссылок растет и мы уже не можем их оперативно восстанавливать поэтому просим помощи у каждого нашего пользователя.
    С сегодняшнего дня, за каждую восстановленную ссылку мы заплатим Вам.
    Подробнее тут -> ссылка
  • Перенесем твои заслуги с другого ресурса!
    Мы понимаем как сложно прокачивать аккаунты на форумах, вроде раскачал аккаунт, а тут появляется ресурс в 100 раз круче но тоже с системой прокачки и снова качать аккаунт...
    Предлагаем вам перенести Ваши заслуги на другом подобном ресурсе к нам.
    Подробности описаны тут -> ссылка
  • Вы можете получать по 2.5% с каждой покупки и продажи на маркете! Подробности в теме Партнёрская программа
Если Вы не хотите скачивать, Вы всегда можете посмотреть онлайн, просто нажмите кнопку ниже :

Открыть плеер

Torrent_Bot

Торрент-Бот
Бот форума
4 Окт 2016
125
32
20





Информация о фильме
Название: На последнем берегу
Оригинальное название: On the Beach
Год выхода: 2000
Жанр: фантастика, драма
Режиссер: Расселл Малкахи
В ролях: Арманд Ассанте, Рэйчел Уорд, Брайан Браун, Жаклин МакКензи, Грант Боулер, Эллисон Веббер, Тигхэн Веббер

О фильме:
В 2006 году обмен ракетными ударами между Китаем и США и последовавшая за этим мировая ядерная война сметают человечество с лица Земли. Радиоактивные осадки угрожают уничтожить последний очаг цивилизации - Австралию. Подводная лодка "Чарлстон" под командованием капитана Дуайта Тауерса, единственный уцелевший в войне корабль американского военно - морского флота, прибывает в Мельбурн. Взяв на борт ученого Джулиана Осборна, "Чарлстон" отправляется в экспедицию последней надежды к берегам Аляски, откуда поступают таинственные, еле слышные радиосигналы...



Страна: США, Австралия
Продолжительность: 03:18:33
Перевод: Профессиональный (многоголосый, закадровый)
Субтитры: Русские

Файл
Формат: Matroska
Качество: DVDRip-AVC
Видео: 698=>744x574 at 25.00 fps, x264, ~2690 kbps
Аудио: AC3, 6 ch, ~448 kbps - | Русский | -
Формат субтитров: softsub (SRT)

***Релиз от:-=DoMiNo=-



M/I
General
Unique ID : 100508725896543444644221035428976888794 (0x4B9D46C7E4CB2986BDEC596027018BDA)
Complete name : На последнем берегу.(2000).DVDRip-AVC.[-=DoMiNo=-].mkv
Format : Matroska
Format version : Version 4
File size : 4.36 GiB
Duration : 3 h 18 min
Overall bit rate : 3 140 kb/s
Movie name : На последнем берегу / On the Beach (2000)
Encoded date : UTC 2019-05-08 14:29:38
Writing application : mkvmerge v33.1.0 ('Primrose') 64-bit
Writing library : libebml v1.3.7 + libmatroska v1.5.0
Attachments : poster.jpg

Video
ID : 1
Format : AVC
Format/Info : Advanced Video Codec
Format profile : [email protected]
Format settings : CABAC / 14 Ref Frames
Format settings, CABAC : Yes
Format settings, Reference : 14 frames
Codec ID : V_MPEG4/ISO/AVC
Duration : 3 h 18 min
Bit rate : 2 690 kb/s
Width : 698 pixels
Height : 574 pixels
Display aspect ratio : 1.297
Frame rate mode : Constant
Frame rate : 25.000 FPS
Color space : YUV
Chroma subsampling : 4:2:0
Bit depth : 8 bits
Scan type : Progressive
Bits/(Pixel*Frame) : 0.269
Stream size : 3.73 GiB (86%)
Title : RIP_BY_-=DoMiNo=-
Writing library : x264 core 157 r2935 545de2f
Encoding settings : cabac=1 / ref=14 / deblock=1:-3:-3 / analyse=0x3:0x133 / me=umh / subme=11 / psy=1 / psy_rd=0.90:0.15 / mixed_ref=1 / me_range=48 / chroma_me=1 / trellis=2 / 8x8dct=1 / cqm=0 / deadzone=21,11 / fast_pskip=0 / chroma_qp_offset=-3 / threads=6 / lookahead_threads=1 / sliced_threads=0 / nr=0 / decimate=0 / interlaced=0 / bluray_compat=0 / constrained_intra=0 / bframes=16 / b_pyramid=2 / b_adapt=2 / b_bias=0 / direct=3 / weightb=1 / open_gop=0 / weightp=2 / keyint=250 / keyint_min=25 / scenecut=40 / intra_refresh=0 / rc_lookahead=80 / rc=2pass / mbtree=1 / bitrate=2690 / ratetol=1.0 / qcomp=0.70 / qpmin=0 / qpmax=69 / qpstep=4 / cplxblur=20.0 / qblur=0.5 / ip_ratio=1.40 / aq=1:0.80
Language : English
Default : Yes
Forced : No
Color range : Limited

Audio
ID : 2
Format : AC-3
Format/Info : Audio Coding 3
Commercial name : Dolby Digital
Codec ID : A_AC3
Duration : 3 h 18 min
Bit rate mode : Constant
Bit rate : 448 kb/s
Channel(s) : 6 channels
Channel layout : L R C LFE Ls Rs
Sampling rate : 48.0 kHz
Frame rate : 31.250 FPS (1536 SPF)
Bit depth : 16 bits
Compression mode : Lossy
Stream size : 636 MiB (14%)
Title : MVO
Language : Russian
Service kind : Complete Main
Default : Yes
Forced : No

Text
ID : 3
Format : UTF-8
Codec ID : S_TEXT/UTF8
Codec ID/Info : UTF-8 Plain Text
Duration : 3 h 15 min
Bit rate : 82 b/s
Count of elements : 1827
Stream size : 119 KiB (0%)
Language : Russian
Default : No
Forced : No

Menu
00:00:00.000 : :Глава 1
00:07:59.080 : :Глава 2
00:16:23.160 : :Глава 3
00:24:54.880 : :Глава 4
00:34:39.960 : :Глава 5
00:42:40.960 : :Глава 6
00:50:41.520 : :Глава 7
01:01:36.600 : :Глава 8
01:10:41.519 : :Глава 9
01:17:49.080 : :Глава 10
01:24:33.600 : :Глава 11
01:28:37.680 : :Глава 12
01:34:23.968 : :Глава 13
01:44:27.608 : :Глава 14
01:53:13.487 : :Глава 15
02:03:56.128 : :Глава 16
02:10:58.848 : :Глава 17
02:21:20.128 : :Глава 18
02:28:50.288 : :Глава 19
02:40:07.248 : :Глава 20
02:50:14.568 : :Глава 21
02:58:19.408 : :Глава 22
03:05:55.367 : :Глава 23
03:16:09.128 : :Глава 24
01:34:23.199 : :Глава 25
01:44:00.359 : :Глава 26
01:52:46.239 : :Глава 27
02:03:28.879 : :Глава 28
02:10:31.599 : :Глава 29
02:20:52.879 : :Глава 30
02:28:23.039 : :Глава 31
02:39:39.999 : :Глава 32
02:49:47.319 : :Глава 33
02:57:52.159 : :Глава 34
03:05:28.119 : :Глава 35
03:15:41.879 : :Глава 36
Скриншоты

 

Вложения

  • 12,1 KB Просмотры: 0
    Личеров 0
    Сидеров 0
    Файлов 1
    Объем 4,4 GB

Похожие темы

Ваш e-mail не будет опубликован. Он потребуется для подтверждения Вашего поста.
Оформление текста Нажмите «Ввод», чтобы отправить ответ.