За сегодня опубликовано 40 новых материалов.
Инструкция новичку Путеводитель по форуму Прокси для Telegram Показать подсказки , это бомба!

Скачать Мулан / Mulan (1998) BDRip-HEVC 1080p | Лицензия бесплатно через торрент

  • 90% материалов доступно к скачиванию после простой регистрации!
    Если же ты хочешь скачивать материалы без требования оставлять отзывы то получи группу "Новичок", 10 способов повышения описаны тут -> ссылка
  • К сожалению количество битых ссылок растет и мы уже не можем их оперативно восстанавливать поэтому просим помощи у каждого нашего пользователя.
    С сегодняшнего дня, за каждую восстановленную ссылку мы заплатим Вам.
    Подробнее тут -> ссылка
  • Перенесем твои заслуги с другого ресурса!
    Мы понимаем как сложно прокачивать аккаунты на форумах, вроде раскачал аккаунт, а тут появляется ресурс в 100 раз круче но тоже с системой прокачки и снова качать аккаунт...
    Предлагаем вам перенести Ваши заслуги на другом подобном ресурсе к нам.
    Подробности описаны тут -> ссылка
  • Вы можете получать по 2.5% с каждой покупки и продажи на маркете! Подробности в теме Партнёрская программа
Если Вы не хотите скачивать, Вы всегда можете посмотреть онлайн, просто нажмите кнопку ниже :

Открыть плеер

Torrent_Bot

Торрент-Бот
Бот форума
4 Окт 2016
125
17
20


Название: Мулан
Оригинальное название: Mulan
Год выхода: 1998
Производство: США / Walt Disney Feature Animation, Walt Disney Pictures
Жанр:мультфильм, мюзикл, приключения, семейный
Продолжительность: 01:27:50

Режиссер: Тони Бэнкрофт, Бэрри Кук
В ролях: Эдди Мёрфи, Лиа Салонга, Минг-На, Джун Форэй, О Сун Тек, Фреда Фо Шен, Джеймс Хонг, Б.Д. Вонг, Донни Осмонд, Пэт Морита

Описание: Для великого народа наступили тяжелые времена: на страну напало воинственное племя гуннов. Переодевшись в мужскую одежду, Мулан присоединяется к другим воинам и отправляется в опасный поход к подножию заснеженных гор. Ее сопровождает забавный дракончик Мушу, который больше похож на маленькую собачку, чем на мифическое чудовище.
Пытаясь скрыть тайну, они попадают в забавные ситуации и не подозревают, что их секрет вот — вот раскроется!…

Качество: BDRip 1080p-HEVC
Видео: HEVC/H.265, 1816x1080, ~4121 Kbps, 10 bit
Аудио 1: AC3, 6 ch, 640 Kbps | Русский, Дублированный (Лицензия)
Аудио 2: AC3, 2 ch, 192 Kbps | Украинский, Профессиональный многоголосый
Аудио 3: AC3, 6 ch, 448 Kbps | Английский (Оригинал)
Субтитры: Русские (форсированные, полные), украинские (полные),английские (полные)



Релиз от: Mr.Fox

Mediainfo
Общее
Уникальный идентификатор : 146030351498109891541152727568785177195 (0x6DDC6C345C547B90C7B2D063570D7A6B)
Полное имя : Mulan (1998) BDRip 1080p [HEVC] 10 bit.mkv
Формат : Matroska
Версия формата : Version 4
Размер файла : 3,32 Гбайт
Продолжительность : 1 ч. 27 м.
Общий поток : 5404 Кбит/сек
Название фильма : Mulan (1998)
Дата кодирования : UTC 2019-02-24 20:46:42
Программа кодирования : mkvmerge v28.2.0 ('The Awakening') 64-bit
Библиотека кодирования : libebml v1.3.6 + libmatroska v1.4.9
Обложка : Yes
Attachments : cover.jpg

Видео
Идентификатор : 1
Формат : HEVC
Формат/Информация : High Efficiency Video Coding
Профиль формата : Main [email protected]@High
Идентификатор кодека : V_MPEGH/ISO/HEVC
Продолжительность : 1 ч. 27 м.
Битрейт : 4121 Кбит/сек
Ширина : 1816 пикселей
Высота : 1080 пикселей
Соотношение сторон : 5:3
Режим частоты кадров : Постоянный
Частота кадров : 23,976 (23976/1000) кадра/сек
Частота кадров в оригинале : 23,976 (24000/1001) кадра/сек
Цветовое пространство : YUV
Субдискретизация насыщенности : 4:2:0
Битовая глубина : 10 бит
Бит/(Пиксели*Кадры) : 0.088
Размер потока : 2,53 Гбайт (76%)
Библиотека кодирования : x265 2.8+74-fd517ae68f93:[Windows][MSVC 1915][64 bit] 10bit
Настройки программы : cpuid=1111039 / frame-threads=3 / numa-pools=12 / wpp / no-pmode / no-pme / no-psnr / no-ssim / log-level=2 / input-csp=1 / input-res=1816x1080 / interlace=0 / total-frames=43165 / level-idc=41 / high-tier=1 / uhd-bd=0 / ref=5 / no-allow-non-conformance / no-repeat-headers / annexb / no-aud / no-hrd / info / hash=0 / no-temporal-layers / open-gop / min-keyint=23 / keyint=240 / gop-lookahead=0 / bframes=10 / b-adapt=2 / b-pyramid / bframe-bias=0 / rc-lookahead=60 / lookahead-slices=4 / scenecut=40 / radl=0 / no-intra-refresh / ctu=32 / min-cu-size=8 / rect / amp / max-tu-size=32 / tu-inter-depth=4 / tu-intra-depth=4 / limit-tu=1 / rdoq-level=2 / dynamic-rd=0.00 / no-ssim-rd / signhide / no-tskip / nr-intra=0 / nr-inter=0 / no-constrained-intra / no-strong-intra-smoothing / max-merge=4 / limit-refs=2 / limit-modes / me=3 / subme=7 / merange=57 / temporal-mvp / weightp / weightb / no-analyze-src-pics / deblock=-3:-3 / no-sao / no-sao-non-deblock / rd=6 / no-early-skip / no-rskip / no-fast-intra / no-tskip-fast / no-cu-lossless / no-b-intra / no-splitrd-skip / rdpenalty=0 / psy-rd=2.00 / psy-rdoq=1.00 / no-rd-refine / no-lossless / cbqpoffs=0 / crqpoffs=0 / rc=crf / crf=20.0 / qcomp=0.60 / qpstep=4 / stats-write=0 / stats-read=0 / vbv-maxrate=50000 / vbv-bufsize=50000 / vbv-init=0.9 / crf-max=0.0 / crf-min=0.0 / ipratio=1.40 / pbratio=1.30 / aq-mode=1 / aq-strength=0.90 / no-cutree / zone-count=0 / no-strict-cbr / qg-size=32 / no-rc-grain / qpmax=69 / qpmin=0 / no-const-vbv / sar=1 / overscan=0 / videoformat=5 / range=0 / colorprim=2 / transfer=2 / colormatrix=2 / chromaloc=0 / display-window=0 / max-cll=0,0 / min-luma=0 / max-luma=1023 / log2-max-poc-lsb=8 / vui-timing-info / vui-hrd-info / slices=1 / no-opt-qp-pps / no-opt-ref-list-length-pps / no-multi-pass-opt-rps / scenecut-bias=0.05 / no-opt-cu-delta-qp / no-aq-motion / no-hdr / no-hdr-opt / no-dhdr10-opt / no-idr-recovery-sei / analysis-reuse-level=5 / scale-factor=0 / refine-intra=0 / refine-inter=0 / refine-mv=0 / no-limit-sao / ctu-info=0 / no-lowpass-dct / refine-mv-type=0 / copy-pic=1 / max-ausize-factor=1.0 / no-dynamic-refine / no-single-sei
Default : Да
Forced : Нет

Аудио #1
Идентификатор : 2
Формат : AC-3
Формат/Информация : Audio Coding 3
Коммерческое название : Dolby Digital
Идентификатор кодека : A_AC3
Продолжительность : 1 ч. 27 м.
Вид битрейта : Постоянный
Битрейт : 640 Кбит/сек
Каналы : 6 каналов
Channel layout : L R C LFE Ls Rs
Частота : 48,0 КГц
Частота кадров : 31,250 кадров/сек (1536 SPF)
Битовая глубина : 16 бит
Метод сжатия : С потерями
Размер потока : 402 Мбайт (12%)
Заголовок : DD 5.1 @ 640 kbps – Дубляж (R5)
Язык : Russian
Default : Да
Forced : Нет

Аудио #2
Идентификатор : 3
Формат : AC-3
Формат/Информация : Audio Coding 3
Коммерческое название : Dolby Digital
Идентификатор кодека : A_AC3
Продолжительность : 1 ч. 27 м.
Вид битрейта : Постоянный
Битрейт : 192 Кбит/сек
Каналы : 2 канала
Channel layout : L R
Частота : 48,0 КГц
Частота кадров : 31,250 кадров/сек (1536 SPF)
Битовая глубина : 16 бит
Метод сжатия : С потерями
Размер потока : 121 Мбайт (4%)
Заголовок : DD 2.0 @ 192 kbps - Многоголосый закадровый
Язык : Ukrainian
Default : Нет
Forced : Нет

Аудио #3
Идентификатор : 4
Формат : AC-3
Формат/Информация : Audio Coding 3
Коммерческое название : Dolby Digital
Идентификатор кодека : A_AC3
Продолжительность : 1 ч. 27 м.
Вид битрейта : Постоянный
Битрейт : 448 Кбит/сек
Каналы : 6 каналов
Channel layout : L R C LFE Ls Rs
Частота : 48,0 КГц
Частота кадров : 31,250 кадров/сек (1536 SPF)
Битовая глубина : 16 бит
Метод сжатия : С потерями
Размер потока : 281 Мбайт (8%)
Заголовок : DD 5.1 @ 448 kbps
Язык : English
Default : Нет
Forced : Нет

Текст #1
Идентификатор : 5
Формат : UTF-8
Идентификатор кодека : S_TEXT/UTF8
Идентификатор кодека/Информация : UTF-8 Plain Text
Продолжительность : 6 с. 48 мс.
Битрейт : 13 бит/сек
ElementCount : 1
Размер потока : 10,0 байт (0%)
Заголовок : Russian @ SRT @ Forced
Язык : Russian
Default : Да
Forced : Нет

Текст #2
Идентификатор : 6
Формат : UTF-8
Идентификатор кодека : S_TEXT/UTF8
Идентификатор кодека/Информация : UTF-8 Plain Text
Продолжительность : 1 ч. 20 м.
Битрейт : 71 бит/сек
ElementCount : 884
Размер потока : 42,5 Кбайт (0%)
Заголовок : Russian @ SRT @ Full
Язык : Russian
Default : Нет
Forced : Нет

Текст #3
Идентификатор : 7
Формат : UTF-8
Идентификатор кодека : S_TEXT/UTF8
Идентификатор кодека/Информация : UTF-8 Plain Text
Продолжительность : 1 ч. 20 м.
Битрейт : 69 бит/сек
ElementCount : 881
Размер потока : 41,2 Кбайт (0%)
Заголовок : Ukrainian @ SRT @ Full
Язык : Ukrainian
Default : Нет
Forced : Нет

Текст #4
Идентификатор : 8
Формат : UTF-8
Идентификатор кодека : S_TEXT/UTF8
Идентификатор кодека/Информация : UTF-8 Plain Text
Продолжительность : 1 ч. 19 м.
Битрейт : 48 бит/сек
ElementCount : 874
Размер потока : 28,1 Кбайт (0%)
Заголовок : English @ SRT @ Full
Язык : English
Default : Нет
Forced : Нет

Меню
00:00:00.000 : en:1. Main Title
00:00:59.184 : en:2. The Huns Attack
00:03:06.353 : en:3. Last-Minute Review
00:06:07.075 : en:4. "Honor to Us All"
00:09:06.421 : en:5. The Matchmaker
00:11:55.006 : en:6. "Reflection"
00:14:13.811 : en:7. A Proclamation From the Emperor
00:17:22.917 : en:8. Mulan's Choice
00:20:24.932 : en:9. The Ancestors
00:23:14.143 : en:10. A Guardian for Mulan
00:25:26.275 : en:11. A Message for the Emperor
00:26:56.949 : en:12. The Powerful Mushu
00:29:10.582 : en:13. A Man's World
00:32:54.347 : en:14. The Greatest Troops of All Time
00:34:49.212 : en:15. Rise and Shine
00:37:31.249 : en:16. "I'll Make a Man Out of You"
00:42:07.608 : en:17. Close Call
00:45:49.872 : en:18. Mushu's Plan
00:46:45.553 : en:19. Urgent News From the General
00:47:33.684 : en:20. "A Girl Worth Fighting for"
00:49:48.694 : en:21. A Village Destroyed
00:54:38.275 : en:22. The Hun Onslaught
00:59:49.419 : en:23. The Masquerade is Over
01:04:20.356 : en:24. Indestructable Huns
01:06:02.125 : en:25. Victory Celebration
01:08:47.040 : en:26. Huns in the Imperial City
01:11:41.297 : en:27. Saving the Emperor
01:15:44.123 : en:28. Honor for Mulan
01:18:53.187 : en:29. Homecoming
01:20:57.478 : en:30. "True to Your Heart"/End Credits



 

Вложения

  • 17,6 KB Просмотры: 0
    Личеров 0
    Сидеров 0
    Файлов 1
    Объем 3,3 GB
Ваш e-mail не будет опубликован. Он потребуется для подтверждения Вашего поста.
Оформление текста Нажмите «Ввод», чтобы отправить ответ.

Привет!

Мы группа людей которые решили помочь другим в решении их проблем, а так же пользователям с поиском самых свежих и качественных инфопродуктов. За 4 с небольшим месяца мы создали этот форум на который заходят ежедневно тысячи человек и посещаемость постоянно растёт. Мы создали панель лицензирования для защиты PHP скриптов от воровства и SEO панель для мониторинга наших сайтов и выбора верной стратегии их развития. Мы надеемся что то что мы создали пригодится Вам и возможно Вы поможете нам развиваться и совершенствоваться вместе с Вами.

Статистика форума

Темы
347.285
Сообщения
372.841
Пользователи
28.591
Новый пользователь
Aleks1966

Приложения форума для iOS и Android


У ркн там нет власти ;)
Гостевуха
Помощь Пользователи
  • H Chat Bot:
    Гость hjjjj присоединился к комнате.
    +1
  • H (Гость) hjjjj:
    тест
    Цитата
  • mizaider @ mizaider:
    Ну что там. Тест пройден или нет? Я волнуюсь.
    Цитата
  • V Chat Bot:
    Гость Vapasik2 присоединился к комнате.
  • V (Гость) Vapasik2:
    Добрый вечер. Не могу восстановить пароль (не приходит уведомление на почту).
    Цитата
  • V (Гость) Vapasik2:
    Что делать?
    Цитата
  • Alpha @ Alpha:
    Vapasik2 написал(а):
    Напишите в тех-поддержку Создать заявку
    Цитата
  • T Chat Bot:
    tezka75 присоединился(лась) к комнате.
  • D Chat Bot:
    DmitryB покинул(а) комнату.
  • Captain @ Captain:
    Батя в здание
    Цитата
  • Eevee @ Eevee:
    <script>alert('Привет))')</script>
    Цитата
  • Eevee @ Eevee:
    упс
    Цитата
  • mizaider @ mizaider:
    Не ну это бан
    Цитата
  • Captain @ Captain:
    Батя в здание
    Цитата
  • Captain @ Captain:
    @mizaider, чек лс@mizaider, чек лс
    Цитата
  • kolyan-malyan Chat Bot:
    kolyan-malyan покинул(а) комнату.
  • S Chat Bot:
    stylvihos покинул(а) комнату.
  • Verniki Chat Bot:
    Verniki присоединился(лась) к комнате.
  • Verniki @ Verniki:
    Уважаемые,пожалуйста, поясните мне - динозавру, что значит "тема в TOR"?
    Цитата
  • G Chat Bot:
    Garry_ покинул(а) комнату.
  • N Chat Bot:
    nyuh_900 покинул(а) комнату.
  • A Chat Bot:
    Asqw покинул(а) комнату.
    A Chat Bot: Asqw покинул(а) комнату.