За последнюю неделю опубликовано 97 новых материалов.
Инструкция новичку Путеводитель по форуму Прокси для Telegram Показать подсказки , это бомба!

Мулан 2 / Mulan II (2004) BDRip-HEVC 1080p | Лицензия

  • Поучаствуй (в качестве покупателя) в любых пяти совместных покупках (кроме завершённых и "Моментальных") и получи группу "Новичок" навсегда -> ссылка на раздел
  • Получай до 480 рублей за каждого приглашенного пользователя!
    представляем Вам очередное расширение партнерской программы, подробности описаны тут -> ссылка
  • 90% материалов доступно к скачиванию после простой регистрации!
    Если же ты хочешь скачивать материалы без требования оставлять отзывы то получи группу "Новичок", 10 способов повышения описаны тут -> ссылка
  • К сожалению количество битых ссылок растет и мы уже не можем их оперативно восстанавливать поэтому просим помощи у каждого нашего пользователя.
    С сегодняшнего дня, за каждую восстановленную ссылку мы заплатим Вам.
    Подробнее тут -> ссылка
  • Перенесем твои заслуги с другого ресурса!
    Мы понимаем как сложно прокачивать аккаунты на форумах, вроде раскачал аккаунт, а тут появляется ресурс в 100 раз круче но тоже с системой прокачки и снова качать аккаунт...
    Предлагаем вам перенести Ваши заслуги на другом подобном ресурсе к нам.
    Подробности описаны тут -> ссылка
  • Вы можете получать по 2.5% с каждой покупки и продажи на маркете! Подробности в теме Партнёрская программа
Если Вы не хотите скачивать, Вы всегда можетепосмотретьонлайн, просто нажмите кнопку ниже :

Открыть плеер

Torrent_Bot

Торрент-Бот
Бот форума
4 Окт 2016
125
65
20


Название: Мулан 2
Оригинальное название: Mulan 2
Год выхода: 2004
Производство: США, Корея Южная, Сингапур, Россия, Малайзия, Казахстан / Walt Disney Feature Animation, Walt Disney Pictures
Жанр:мультфильм, мюзикл, приключения, семейный
Продолжительность: 01:18:41

Режиссер: Даррел Руни, Линн Сауферлэнд
В ролях: Минг-На, Б.Д. Вонг, Марк Моусли, Люси Лью, Харви Фирштейн, Сандра О, Гедде Ватанабэ, Лорен Том, Джерри Тондо, Пэт Морита

Описание: Новое увлекательное путешествие с уже знакомыми героями — отважной китайской воительницей Мулан и ее верным другом Ли Шанем. На сей раз им, храбрым победителям монгольских орд, предстоит самая ответственная миссия в жизни. Это… свадьба. Но, прежде чем Мулан и Ли Шань поженятся, они должны позаботиться и о чужом счастье, доставив трех китайских принцесс их женихам. Легкая задача? Не очень, если вам «помогает» самый легкомысленный дракон в мире Мушу, а коварные монголы уже затевают новые козни!..

Качество: BDRip 1080p-HEVC
Видео: HEVC/H.265, 1920x1080, ~4238 Kbps, 10 bit
Аудио 1: AC3, 6 ch, 640 Kbps | Русский, Дублированный (Лицензия)
Аудио 2: AC3, 2 ch, 192 Kbps | Украинский, Профессиональный многоголосый
Аудио 3: AC3, 6 ch, 640 Kbps | Английский (Оригинал)
Субтитры: Русские (форсированные, полные), украинские (полные),английские (полные, SDH)



Релиз от: Mr.Fox

Mediainfo
Общее
Уникальный идентификатор : 142543779005029322277039303601579867248 (0x6B3CEEE8A1EB8F802DBFEAB38403BC70)
Полное имя : Mulan 2 (2005) BDRip 1080p [HEVC] 10 bit.mkv
Формат : Matroska
Версия формата : Version 4
Размер файла : 3,14 Гбайт
Продолжительность : 1 ч. 18 м.
Общий поток : 5713 Кбит/сек
Название фильма : Мулан 2 (2004)
Дата кодирования : UTC 2019-02-19 10:35:00
Программа кодирования : mkvmerge v28.2.0 ('The Awakening') 64-bit
Библиотека кодирования : libebml v1.3.6 + libmatroska v1.4.9
Обложка : Yes
Attachments : cover.jpg

Видео
Идентификатор : 1
Формат : HEVC
Формат/Информация : High Efficiency Video Coding
Профиль формата : Main [email protected]@High
Идентификатор кодека : V_MPEGH/ISO/HEVC
Продолжительность : 1 ч. 18 м.
Битрейт : 4238 Кбит/сек
Ширина : 1920 пикселей
Высота : 1080 пикселей
Соотношение сторон : 16:9
Режим частоты кадров : Постоянный
Частота кадров : 23,976 (23976/1000) кадра/сек
Частота кадров в оригинале : 23,976 (24000/1001) кадра/сек
Цветовое пространство : YUV
Субдискретизация насыщенности : 4:2:0
Битовая глубина : 10 бит
Бит/(Пиксели*Кадры) : 0.085
Размер потока : 2,33 Гбайт (74%)
Библиотека кодирования : x265 2.8+74-fd517ae68f93:[Windows][MSVC 1915][64 bit] 10bit
Настройки программы : cpuid=1111039 / frame-threads=3 / numa-pools=12 / wpp / no-pmode / no-pme / no-psnr / no-ssim / log-level=2 / input-csp=1 / input-res=1920x1080 / interlace=0 / total-frames=43176 / level-idc=41 / high-tier=1 / uhd-bd=0 / ref=5 / no-allow-non-conformance / no-repeat-headers / annexb / no-aud / no-hrd / info / hash=0 / no-temporal-layers / open-gop / min-keyint=23 / keyint=240 / gop-lookahead=0 / bframes=10 / b-adapt=2 / b-pyramid / bframe-bias=0 / rc-lookahead=60 / lookahead-slices=4 / scenecut=40 / radl=0 / no-intra-refresh / ctu=32 / min-cu-size=8 / rect / amp / max-tu-size=32 / tu-inter-depth=4 / tu-intra-depth=4 / limit-tu=1 / rdoq-level=2 / dynamic-rd=0.00 / no-ssim-rd / signhide / no-tskip / nr-intra=0 / nr-inter=0 / no-constrained-intra / no-strong-intra-smoothing / max-merge=4 / limit-refs=2 / limit-modes / me=3 / subme=7 / merange=57 / temporal-mvp / weightp / weightb / no-analyze-src-pics / deblock=-3:-3 / no-sao / no-sao-non-deblock / rd=6 / no-early-skip / no-rskip / no-fast-intra / no-tskip-fast / no-cu-lossless / no-b-intra / no-splitrd-skip / rdpenalty=0 / psy-rd=2.00 / psy-rdoq=1.00 / no-rd-refine / no-lossless / cbqpoffs=0 / crqpoffs=0 / rc=crf / crf=20.0 / qcomp=0.60 / qpstep=4 / stats-write=0 / stats-read=0 / vbv-maxrate=50000 / vbv-bufsize=50000 / vbv-init=0.9 / crf-max=0.0 / crf-min=0.0 / ipratio=1.40 / pbratio=1.30 / aq-mode=1 / aq-strength=0.90 / no-cutree / zone-count=0 / no-strict-cbr / qg-size=32 / no-rc-grain / qpmax=69 / qpmin=0 / no-const-vbv / sar=1 / overscan=0 / videoformat=5 / range=0 / colorprim=2 / transfer=2 / colormatrix=2 / chromaloc=0 / display-window=0 / max-cll=0,0 / min-luma=0 / max-luma=1023 / log2-max-poc-lsb=8 / vui-timing-info / vui-hrd-info / slices=1 / no-opt-qp-pps / no-opt-ref-list-length-pps / no-multi-pass-opt-rps / scenecut-bias=0.05 / no-opt-cu-delta-qp / no-aq-motion / no-hdr / no-hdr-opt / no-dhdr10-opt / no-idr-recovery-sei / analysis-reuse-level=5 / scale-factor=0 / refine-intra=0 / refine-inter=0 / refine-mv=0 / no-limit-sao / ctu-info=0 / no-lowpass-dct / refine-mv-type=0 / copy-pic=1 / max-ausize-factor=1.0 / no-dynamic-refine / no-single-sei
Default : Да
Forced : Нет

Аудио #1
Идентификатор : 2
Формат : AC-3
Формат/Информация : Audio Coding 3
Коммерческое название : Dolby Digital
Идентификатор кодека : A_AC3
Продолжительность : 1 ч. 18 м.
Вид битрейта : Постоянный
Битрейт : 640 Кбит/сек
Каналы : 6 каналов
Channel layout : L R C LFE Ls Rs
Частота : 48,0 КГц
Частота кадров : 31,250 кадров/сек (1536 SPF)
Битовая глубина : 16 бит
Метод сжатия : С потерями
Размер потока : 360 Мбайт (11%)
Заголовок : DD 5.1 @ 640 kbps – Дубляж (R5)
Язык : Russian
Default : Да
Forced : Нет

Аудио #2
Идентификатор : 3
Формат : AC-3
Формат/Информация : Audio Coding 3
Коммерческое название : Dolby Digital
Идентификатор кодека : A_AC3
Продолжительность : 1 ч. 18 м.
Вид битрейта : Постоянный
Битрейт : 192 Кбит/сек
Каналы : 2 канала
Channel layout : L R
Частота : 48,0 КГц
Частота кадров : 31,250 кадров/сек (1536 SPF)
Битовая глубина : 16 бит
Метод сжатия : С потерями
Размер потока : 108 Мбайт (3%)
Заголовок : DD 2.0 @ 192 kbps - Многоголосый закадровый, Невафільм Україна
Язык : Ukrainian
Default : Нет
Forced : Нет

Аудио #3
Идентификатор : 4
Формат : AC-3
Формат/Информация : Audio Coding 3
Коммерческое название : Dolby Digital
Идентификатор кодека : A_AC3
Продолжительность : 1 ч. 18 м.
Вид битрейта : Постоянный
Битрейт : 640 Кбит/сек
Каналы : 6 каналов
Channel layout : L R C LFE Ls Rs
Частота : 48,0 КГц
Частота кадров : 31,250 кадров/сек (1536 SPF)
Битовая глубина : 16 бит
Метод сжатия : С потерями
Размер потока : 360 Мбайт (11%)
Заголовок : DD 5.1 @ 640 kbps
Язык : English
Default : Нет
Forced : Нет

Текст #1
Идентификатор : 5
Формат : UTF-8
Идентификатор кодека : S_TEXT/UTF8
Идентификатор кодека/Информация : UTF-8 Plain Text
Продолжительность : 3 с. 712 мс.
Битрейт : 25 бит/сек
ElementCount : 1
Размер потока : 12,0 байт (0%)
Заголовок : Russian @ SRT @ Forced
Язык : Russian
Default : Да
Forced : Нет

Текст #2
Идентификатор : 6
Формат : UTF-8
Идентификатор кодека : S_TEXT/UTF8
Идентификатор кодека/Информация : UTF-8 Plain Text
Продолжительность : 1 ч. 12 м.
Битрейт : 106 бит/сек
ElementCount : 988
Размер потока : 57,1 Кбайт (0%)
Заголовок : Russian @ SRT @ Full
Язык : Russian
Default : Нет
Forced : Нет

Текст #3
Идентификатор : 7
Формат : UTF-8
Идентификатор кодека : S_TEXT/UTF8
Идентификатор кодека/Информация : UTF-8 Plain Text
Продолжительность : 1 ч. 12 м.
Битрейт : 103 бит/сек
ElementCount : 972
Размер потока : 55,3 Кбайт (0%)
Заголовок : Ukrainian @ SRT @ Full
Язык : Ukrainian
Default : Нет
Forced : Нет

Текст #4
Идентификатор : 8
Формат : UTF-8
Идентификатор кодека : S_TEXT/UTF8
Идентификатор кодека/Информация : UTF-8 Plain Text
Продолжительность : 1 ч. 12 м.
Битрейт : 65 бит/сек
ElementCount : 1085
Размер потока : 34,8 Кбайт (0%)
Заголовок : English @ SRT @ Full
Язык : English
Default : Нет
Forced : Нет

Текст #5
Идентификатор : 9
Формат : UTF-8
Идентификатор кодека : S_TEXT/UTF8
Идентификатор кодека/Информация : UTF-8 Plain Text
Продолжительность : 1 ч. 17 м.
Битрейт : 74 бит/сек
ElementCount : 1470
Размер потока : 42,6 Кбайт (0%)
Заголовок : English @ SRT @ Full SDH
Язык : English
Default : Нет
Forced : Нет

Меню
00:00:00.000 : en:Opening Credits
00:03:12.317 : en:"Lesson #1"
00:08:30.844 : en:Shang's Proposal
00:12:12.023 : en:Mushu's On His Way Out!
00:14:15.354 : en:Yin &Yang
00:17:16.202 : en:The New Mission
00:19:57.196 : en:"A Girl Worth Fighting For"
00:25:07.089 : en:The Princesses And Their Guards
00:31:51.660 : en:Mushu's Meddling
00:38:00.570 : en:"Like Other Girls"
00:42:18.953 : en:Mushu's Puppet Show
00:51:12.945 : en:Breaking A Vow
01:02:08.725 : en:Fulfilling the Duty
01:04:57.977 : en:The Wedding
01:10:14.043 : en:Back on the Pedestal
01:13:23.774 : en:End Credits/"Like Other Girls"



 

Вложения

  • 16,7 KB Просмотры: 1
    Личеров 0
    Сидеров 0
    Файлов 1
    Объем 3,1 GB
Ваш e-mail не будет опубликован. Он потребуется для подтверждения Вашего поста.
Оформление текста Нажмите «Ввод», чтобы отправить ответ.