За сегодня опубликовано 18 новых материалов.
Инструкция новичку Путеводитель по форуму Прокси для Telegram Показать подсказки , это бомба!

DCMA Скачать Мстители: Война бесконечности / Avengers: Infinity War (2018) UHDRip 2160p | 4K | SDR | D, A бесплатно через торрент

  • Получай до 480 рублей за каждого приглашенного пользователя!
    представляем Вам очередное расширение партнерской программы, подробности описаны тут -> ссылка
  • 90% материалов доступно к скачиванию после простой регистрации!
    Если же ты хочешь скачивать материалы без требования оставлять отзывы то получи группу "Новичок", 10 способов повышения описаны тут -> ссылка
  • К сожалению количество битых ссылок растет и мы уже не можем их оперативно восстанавливать поэтому просим помощи у каждого нашего пользователя.
    С сегодняшнего дня, за каждую восстановленную ссылку мы заплатим Вам.
    Подробнее тут -> ссылка
  • Перенесем твои заслуги с другого ресурса!
    Мы понимаем как сложно прокачивать аккаунты на форумах, вроде раскачал аккаунт, а тут появляется ресурс в 100 раз круче но тоже с системой прокачки и снова качать аккаунт...
    Предлагаем вам перенести Ваши заслуги на другом подобном ресурсе к нам.
    Подробности описаны тут -> ссылка
  • Вы можете получать по 2.5% с каждой покупки и продажи на маркете! Подробности в теме Партнёрская программа
Если Вы не хотите скачивать, Вы всегда можете посмотреть онлайн, просто нажмите кнопку ниже :

Открыть плеер

Torrent_Bot

Торрент-Бот
Бот форума
4 Окт 2016
125
32
20



Информация о фильме
Название: Мстители: Война бесконечности
Оригинальное название: Avengers: Infinity War
Год выхода: 2018
Жанр: Фантастика, фэнтези, боевик, приключения
Режиссер: Энтони Руссо, Джо Руссо
В ролях: Роберт Дауни мл., Крис Хемсворт, Марк Руффало, Крис Эванс, Скарлетт Йоханссон, Дон Чидл, Бенедикт Камбербэтч, Том Холланд (II), Чэдвик Боузмэн, Зои Салдана

О фильме:
Пока Мстители и их союзники продолжают защищать мир от различных опасностей, с которыми не смог бы справиться один супергерой, новая угроза возникает из космоса: Танос. Межгалактический тиран преследует цель собрать все шесть Камней Бесконечности — артефакты невероятной силы, с помощью которых можно менять реальность по своему желанию. Всё, с чем Мстители сталкивались ранее, вело к этому моменту — судьба Земли никогда ещё не была столь неопределённой.



Страна: США
Студия: Marvel Studios
Продолжительность: 02:29:21
Перевод: Дублированный, авторский

Файл
Кодек: x264
Качество: UHDRip 2160p
Видео: 3840x1608, 31.0 Mbit/s, 23.976 fps, SDR
Звук:
Russian: AC3 / 5.1 / 48 kHz / 640 kbps / 16 bit - Дублированный
Ukrainian: DTS / 5.1 / 48 kHz / 1509 kbps / 24 bit - Дублированный
Russian: DTS / 5.1 / 48 kHz / 1509 kbps / 24 bit - М.Чадов
English: DTS / 5.1 / 48 kHz / 1509 kbps / 24 bit - Оригинал
Субтитры: Русские, украинские, английские

MI
Unique ID : 67111249967635926508734310762706660244 (0x327D2816665471C4DA8524D7EA106B94)
Complete name : D:Avengers_Infinity_War.2018.x264.UHDRip.2160p.4K_SDR.mkv
Format : Matroska
Format version : Version 4
File size : 37.7 GiB
Duration : 2 h 29 min
Overall bit rate : 36.2 Mb/s
Movie name : =Avengers Infinity War=
Encoded date : UTC 2018-11-28 04:26:01
Writing application : mkvmerge v28.2.0 ('The Awakening') 64-bit
Writing library : libebml v1.3.6 + libmatroska v1.4.9
Cover : Yes
Attachments : cover

Video
ID : 1
Format : AVC
Format/Info : Advanced Video Codec
Format profile : [email protected]
Format settings : CABAC / 5 Ref Frames
Format settings, CABAC : Yes
Format settings, ReFrames : 5 frames
Codec ID : V_MPEG4/ISO/AVC
Duration : 2 h 29 min
Bit rate : 31.0 Mb/s
Width : 3 840 pixels
Height : 1 608 pixels
Display aspect ratio : 2.40:1
Frame rate mode : Constant
Frame rate : 23.976 (24000/1001) FPS
Color space : YUV
Chroma subsampling : 4:2:0
Bit depth : 8 bits
Scan type : Progressive
Bits/(Pixel*Frame) : 0.209
Stream size : 32.3 GiB (86%)
Writing library : x264 core 157 r2935 545de2f
Encoding settings : cabac=1 / ref=5 / deblock=1:-2:-2 / analyse=0x3:0x113 / me=umh / subme=10 / psy=1 / psy_rd=1.03:0.09 / mixed_ref=1 / me_range=28 / chroma_me=1 / trellis=2 / 8x8dct=1 / cqm=0 / deadzone=21,11 / fast_pskip=1 / chroma_qp_offset=-2 / threads=18 / lookahead_threads=4 / sliced_threads=0 / nr=0 / decimate=1 / interlaced=0 / bluray_compat=0 / constrained_intra=0 / bframes=12 / b_pyramid=2 / b_adapt=2 / b_bias=0 / direct=1 / weightb=1 / open_gop=0 / weightp=2 / keyint=230 / keyint_min=23 / scenecut=40 / intra_refresh=0 / rc_lookahead=120 / rc=crf / mbtree=0 / crf=18.5 / qcomp=0.60 / qpmin=0 / qpmax=69 / qpstep=4 / vbv_maxrate=300000 / vbv_bufsize=300000 / crf_max=0.0 / nal_hrd=none / filler=0 / ip_ratio=1.35 / pb_ratio=1.25 / aq=3:0.75
Language : English
Default : Yes
Forced : No
Color range : Limited
Color primaries : BT.709
Matrix coefficients : BT.709

Audio #1
ID : 2
Format : AC-3
Format/Info : Audio Coding 3
Commercial name : Dolby Digital
Codec ID : A_AC3
Duration : 2 h 29 min
Bit rate mode : Constant
Bit rate : 640 kb/s
Channel(s) : 6 channels
Channel layout : L R C LFE Ls Rs
Sampling rate : 48.0 kHz
Frame rate : 31.250 FPS (1536 SPF)
Bit depth : 16 bits
Compression mode : Lossy
Stream size : 684 MiB (2%)
Title : Dub [License]
Language : Russian
Service kind : Complete Main
Default : No
Forced : Yes

Audio #2
ID : 3
Format : DTS
Format/Info : Digital Theater Systems
Codec ID : A_DTS
Duration : 2 h 29 min
Bit rate mode : Constant
Bit rate : 1 509 kb/s
Channel(s) : 6 channels
Channel layout : C L R Ls Rs LFE
Sampling rate : 48.0 kHz
Frame rate : 93.750 FPS (512 SPF)
Bit depth : 24 bits
Compression mode : Lossy
Stream size : 1.57 GiB (4%)
Title : Dub [License]
Language : Ukrainian
Default : Yes
Forced : No

Audio #3
ID : 4
Format : DTS
Format/Info : Digital Theater Systems
Codec ID : A_DTS
Duration : 2 h 29 min
Bit rate mode : Constant
Bit rate : 1 509 kb/s
Channel(s) : 6 channels
Channel layout : C L R Ls Rs LFE
Sampling rate : 48.0 kHz
Frame rate : 93.750 FPS (512 SPF)
Bit depth : 24 bits
Compression mode : Lossy
Stream size : 1.57 GiB (4%)
Title : AVO [M.Chadov]
Language : Russian
Default : No
Forced : No

Audio #4
ID : 5
Format : DTS
Format/Info : Digital Theater Systems
Codec ID : A_DTS
Duration : 2 h 29 min
Bit rate mode : Constant
Bit rate : 1 509 kb/s
Channel(s) : 6 channels
Channel layout : C L R Ls Rs LFE
Sampling rate : 48.0 kHz
Frame rate : 93.750 FPS (512 SPF)
Bit depth : 24 bits
Compression mode : Lossy
Stream size : 1.57 GiB (4%)
Title : Original
Language : English
Default : No
Forced : No

Text #1
ID : 6
Format : UTF-8
Codec ID : S_TEXT/UTF8
Codec ID/Info : UTF-8 Plain Text
Duration : 2 h 12 min
Bit rate : 0 b/s
Count of elements : 14
Stream size : 373 Bytes (0%)
Title : Forced
Language : Russian
Default : Yes
Forced : Yes

Text #2
ID : 7
Format : UTF-8
Codec ID : S_TEXT/UTF8
Codec ID/Info : UTF-8 Plain Text
Duration : 2 h 17 min
Bit rate : 0 b/s
Count of elements : 15
Stream size : 429 Bytes (0%)
Title : Forced
Language : Ukrainian
Default : No
Forced : Yes

Text #3
ID : 8
Format : UTF-8
Codec ID : S_TEXT/UTF8
Codec ID/Info : UTF-8 Plain Text
Duration : 2 h 28 min
Bit rate : 64 b/s
Count of elements : 1596
Stream size : 70.4 KiB (0%)
Title : Full
Language : Russian
Default : No
Forced : No

Text #4
ID : 9
Format : UTF-8
Codec ID : S_TEXT/UTF8
Codec ID/Info : UTF-8 Plain Text
Duration : 2 h 28 min
Bit rate : 76 b/s
Count of elements : 2085
Stream size : 83.2 KiB (0%)
Title : SDH
Language : Russian
Default : No
Forced : No

Text #5
ID : 10
Format : UTF-8
Codec ID : S_TEXT/UTF8
Codec ID/Info : UTF-8 Plain Text
Duration : 2 h 28 min
Bit rate : 42 b/s
Count of elements : 1724
Stream size : 46.1 KiB (0%)
Title : Full
Language : English
Default : No
Forced : No

Text #6
ID : 11
Format : UTF-8
Codec ID : S_TEXT/UTF8
Codec ID/Info : UTF-8 Plain Text
Duration : 2 h 28 min
Bit rate : 49 b/s
Count of elements : 2067
Stream size : 53.9 KiB (0%)
Title : SDH
Language : English
Default : No
Forced : No

Text #7
ID : 12
Format : UTF-8
Codec ID : S_TEXT/UTF8
Codec ID/Info : UTF-8 Plain Text
Duration : 2 h 28 min
Bit rate : 70 b/s
Count of elements : 2067
Stream size : 76.5 KiB (0%)
Title : SDH Colored
Language : English
Default : No
Forced : No

Menu
00:00:00.000 : en:00:00:00.000
00:11:28.730 : en:00:11:28.730
00:18:13.884 : en:00:18:13.884
00:27:23.809 : en:00:27:23.809
00:35:48.813 : en:00:35:48.813
00:42:23.541 : en:00:42:23.541
00:54:12.875 : en:00:54:12.875
00:59:36.740 : en:00:59:36.740
01:05:07.153 : en:01:05:07.153
01:10:53.666 : en:01:10:53.666
01:17:06.956 : en:01:17:06.956
01:24:14.758 : en:01:24:14.758
01:31:08.004 : en:01:31:08.004
01:42:00.406 : en:01:42:00.406
01:45:57.810 : en:01:45:57.810
01:53:04.069 : en:01:53:04.069
01:58:52.917 : en:01:58:52.917
02:03:58.181 : en:02:03:58.181
02:11:13.282 : en:02:11:13.282
02:17:31.285 : en:02:17:31.285
Скриншоты
 

Вложения

  • 189,6 KB Просмотры: 0
    Личеров 0
    Сидеров 0
    Файлов 1
    Объем 37,7 GB
Ваш e-mail не будет опубликован. Он потребуется для подтверждения Вашего поста.
Оформление текста Нажмите «Ввод», чтобы отправить ответ.