За сегодня опубликовано 4 новых материалов.
Инструкция новичку Путеводитель по форуму Прокси для Telegram Показать подсказки , это бомба!

Скачать Мешок с костями / Bag Of Bones [01-02 из 02] (2011) WEB-DLRip | ТВ3 бесплатно через торрент

  • Получай до 480 рублей за каждого приглашенного пользователя!
    представляем Вам очередное расширение партнерской программы, подробности описаны тут -> ссылка
  • 90% материалов доступно к скачиванию после простой регистрации!
    Если же ты хочешь скачивать материалы без требования оставлять отзывы то получи группу "Новичок", 10 способов повышения описаны тут -> ссылка
  • К сожалению количество битых ссылок растет и мы уже не можем их оперативно восстанавливать поэтому просим помощи у каждого нашего пользователя.
    С сегодняшнего дня, за каждую восстановленную ссылку мы заплатим Вам.
    Подробнее тут -> ссылка
  • Перенесем твои заслуги с другого ресурса!
    Мы понимаем как сложно прокачивать аккаунты на форумах, вроде раскачал аккаунт, а тут появляется ресурс в 100 раз круче но тоже с системой прокачки и снова качать аккаунт...
    Предлагаем вам перенести Ваши заслуги на другом подобном ресурсе к нам.
    Подробности описаны тут -> ссылка
  • Вы можете получать по 2.5% с каждой покупки и продажи на маркете! Подробности в теме Партнёрская программа
Если Вы не хотите скачивать, Вы всегда можете посмотреть онлайн, просто нажмите кнопку ниже :

Открыть плеер

Torrent_Bot

Торрент-Бот
Бот форума
4 Окт 2016
125
30
20
69cce9a90955c9987cccdfc15c569630.jpg

Информация о фильме
Название: Мешок с костями
Оригинальное название: Bag Of Bones
Год выхода: 2011
Жанр:триллер
Режиссер: Мик Гаррис
В ролях: Пирс Броснан, Мелисса Джордж, Мэтт Фрюэр, Джейсон Пристли, Аннабет Гиш, Аника Нони Роуз, Уильям Шэллерт, Кэйтлин Кармайкл, Гари Леверт, и др.

У писателя Майкла Нунена умирает жена Джоанна. После ее гибели известный на весь мир автор мистических романов намеренно делает из себя затворника, отгородившись от остального мира. Но проходит несколько лет, и по стечению обстоятельств писатель встречает девушку Мэтти, в которую влюбляется, хотя и не желает признаваться в этом самому себе. Его жизнь начинается с чистого листа. После признания в своих чувствах новоявленной невесте Майклу придется столкнуться с не менее жутким кошмаром, чем смерть собственной жены. Мистические приключения; реалистичные жуткие сны; жестокие родственники Мэтти, пытающиеся отправить писателя на тот свет, и конечно же появляющаяся время от времени Джоанна… Ее призрак все время пытается уберечь Майкла от неверного шага…

Дата мировой премьеры: 11 декабря 2011
Дата российской премьеры: 21 сентября 2012
Бюджет фильма: $15,000,000

9b857fa014ed8640912297cdfd2080b2.gif0237c8000a1a6b2f8a1c37d5ed16465c.gif

Страна: США
Продолжительность: 2 x ~01:20:00
Перевод: Дублированный - ТВ3

Файл
Кодек: XviD
Качество: WEB-DLRip
Видео: XviD, ~ 1300 Кбит/с, 720x400
Аудио: Русский, английский (MP3, 2 ch, 128 Кбит/с)

MediaInfo:
C:UsersadminDownloadsVideoBag.of.Bones.part1.WEB-DLRip.Rus.Eng.TV3.avi
General
Complete name : C:UsersadminDownloadsVideoBag.of.Bones.part1.WEB-DLRip.Rus.Eng.TV3.avi
Format : AVI
Format/Info : Audio Video Interleave
File size : 900 MiB
Duration : 1h 19mn
Overall bit rate : 1 575 Kbps
Writing application : VirtualDubMod 1.6.0.0 SURROUND (build 2560/release)
Writing library : VirtualDubMod build 2560/release
Video #0
ID : 0
Format : MPEG-4 Visual
Format profile : Advanced [email protected]
Format settings, BVOP : 1
Format settings, QPel : No
Format settings, GMC : No warppoints
Format settings, Matrix : Default (MPEG)
Codec ID : XVID
Codec ID/Hint : XviD
Duration : 1h 19mn
Bit rate : 1 305 Kbps
Width : 720 pixels
Height : 400 pixels
Display aspect ratio : 16:9
Frame rate : 23.976 fps
Color space : YUV
Chroma subsampling : 4:2:0
Bit depth : 8 bits
Scan type : Progressive
Compression mode : Lossy
Bits/(Pixel*Frame) : 0.189
Stream size : 746 MiB (83%)
Writing library : XviD 64
Audio #1
ID : 1
Format : MPEG Audio
Format version : Version 1
Format profile : Layer 3
Mode : Joint stereo
Mode extension : MS Stereo
Codec ID : 55
Codec ID/Hint : MP3
Duration : 1h 19mn
Bit rate mode : Constant
Bit rate : 128 Kbps
Channel(s) : 2 channels
Sampling rate : 48.0 KHz
Compression mode : Lossy
Stream size : 73.2 MiB (8%)
Alignment : Aligned on interleaves
Interleave, duration : 42 ms (1.00 video frame)
Interleave, preload duration : 504 ms
Audio #2
ID : 2
Format : MPEG Audio
Format version : Version 1
Format profile : Layer 3
Mode : Joint stereo
Mode extension : MS Stereo
Codec ID : 55
Codec ID/Hint : MP3
Duration : 1h 19mn
Bit rate mode : Constant
Bit rate : 128 Kbps
Channel(s) : 2 channels
Sampling rate : 48.0 KHz
Compression mode : Lossy
Stream size : 73.2 MiB (8%)
Alignment : Aligned on interleaves
Interleave, duration : 42 ms (1.00 video frame)
Interleave, preload duration : 504 ms
Writing library : LAME3.98r
Encoding settings : -m j -V 4 -q 2 -lowpass 17 -b 128

42fb5ccd5067c81fc6081ae07a696861.jpeg937f59fdb971d4b1ed033c40b6ba2cdc.jpeg850ae341d472c6e061e85e4ac808a923.jpegd8ca22a4d89e46338e6c1d7a1bd9b208.jpeg
 

Вложения

  • 14,9 KB Просмотры: 0
    Личеров 0
    Сидеров 0
    Файлов 2
    Объем 2,7 GB
Ваш e-mail не будет опубликован. Он потребуется для подтверждения Вашего поста.
Оформление текста Нажмите «Ввод», чтобы отправить ответ.