За сегодня опубликовано 0 новых материалов.
Инструкция новичку Путеводитель по форуму Прокси для Telegram Показать подсказки , это бомба!

Скачать Мешок с костями / Bag Of Bones [01-02 из 02] (2011) WEB-DLRip от Youtracker | TB3 бесплатно через торрент

  • Получай до 480 рублей за каждого приглашенного пользователя!
    представляем Вам очередное расширение партнерской программы, подробности описаны тут -> ссылка
  • 90% материалов доступно к скачиванию после простой регистрации!
    Если же ты хочешь скачивать материалы без требования оставлять отзывы то получи группу "Новичок", 10 способов повышения описаны тут -> ссылка
  • К сожалению количество битых ссылок растет и мы уже не можем их оперативно восстанавливать поэтому просим помощи у каждого нашего пользователя.
    С сегодняшнего дня, за каждую восстановленную ссылку мы заплатим Вам.
    Подробнее тут -> ссылка
  • Перенесем твои заслуги с другого ресурса!
    Мы понимаем как сложно прокачивать аккаунты на форумах, вроде раскачал аккаунт, а тут появляется ресурс в 100 раз круче но тоже с системой прокачки и снова качать аккаунт...
    Предлагаем вам перенести Ваши заслуги на другом подобном ресурсе к нам.
    Подробности описаны тут -> ссылка
  • Вы можете получать по 2.5% с каждой покупки и продажи на маркете! Подробности в теме Партнёрская программа
Если Вы не хотите скачивать, Вы всегда можете посмотреть онлайн, просто нажмите кнопку ниже :

Открыть плеер

Torrent_Bot

Торрент-Бот
Бот форума
4 Окт 2016
125
32
20
d6a00cfcefd3ae4afbab985e8ace7791.jpg

Год выпуска: 2011
Страна: США
Жанр: ужасы, драма
Продолжительность: 01:19:56 + 01:23:29
Перевод: Профессиональный (полное дублирование) - ТВ3
Субтитры: Нет

Режиссёр: Мик Гэррис / Mick Garris

В ролях: Пирс Броснан, Мелисса Джордж, Мэтт Фрюэр, Джейсон Пристли, Аннабет Гиш, Аника Нони Роуз, Уильям Шэллерт, Кэйтлин Кармайкл, Гари Леверт и др.

Описание: У писателя Майка Нунэна умирает жена Джоанна. После её гибели известный на весь мир автор мистических романов намеренно делает из себя затворника, отгородившись от остального мира. Но проходит несколько лет, и по стечению обстоятельств писатель встречает девушку Мэтти, в которую влюбляется, хотя и не желает признаваться в этом самому себе. Его жизнь начинается с чистого листа. После признания в своих чувствах новоявленной невесте Майклу придётся столкнуться с не менее жутким кошмаром, чем смерть собственной жены. Мистические приключения; реалистичные жуткие сны; жестокие родственники Мэтти, пытающиеся отправить писателя на тот свет, и конечно же появляющаяся время от времени Джоанна... Её призрак всё время пытается уберечь Майкла от неверного шага...

Качество: WEB-DLRip
Формат: AVI
Видео кодек: XviD
Аудио кодек: MP3
Видео: 656x368 (1.78:1), 23.976 fps, XviD build 50 ~1162 kbps avg, 0.20 bit/pixel
Аудио: 48 kHz, MPEG Layer 3, 2 ch, ~128.00 kbps avg

Раздача от:

Скриншоты
4c1b04a134ef2f798ddf23ae9c4abea0.jpeg33388b793e5f5f364dca6d41532b9d8c.jpeg4f6b9602a4df316d89e31a002d124c1a.jpeg
MI
D:Bag.of.Bones.s01e. WEB-DLRip.[YTN] by dexter lexBag.of.Bones.s01e01.Part.One.WEB-DLRip.[YTN] by dexter lex.avi
General
Complete name : D:Bag.of.Bones.s01e. WEB-DLRip.[YTN] by dexter lexBag.of.Bones.s01e01.Part.One.WEB-DLRip.[YTN] by dexter lex.avi
Format : AVI
Format/Info : Audio Video Interleave
File size : 743 MiB
Duration : 1h 19mn
Overall bit rate : 1 299 Kbps
Writing application : VirtualDubMod 1.5.10.3 | www.virtualdub-fr.org || (build 2550/release)
Writing library : VirtualDubMod build 2550/release
Video #0
ID : 0
Format : MPEG-4 Visual
Format profile : Advanced [email protected]
Format settings, BVOP : 1
Format settings, QPel : No
Format settings, GMC : No warppoints
Format settings, Matrix : Custom
Codec ID : XVID
Codec ID/Hint : XviD
Duration : 1h 19mn
Bit rate : 1 162 Kbps
Width : 656 pixels
Height : 368 pixels
Display aspect ratio : 1.78:1
Frame rate : 23.976 fps
Color space : YUV
Chroma subsampling : 4:2:0
Bit depth : 8 bits
Scan type : Progressive
Compression mode : Lossy
Bits/(Pixel*Frame) : 0.201
Stream size : 664 MiB (89%)
Writing library : XviD 1.2.1 (UTC 2008-12-04)
Audio #1
ID : 1
Format : MPEG Audio
Format version : Version 1
Format profile : Layer 3
Codec ID : 55
Codec ID/Hint : MP3
Duration : 1h 19mn
Bit rate mode : Constant
Bit rate : 128 Kbps
Channel(s) : 2 channels
Sampling rate : 48.0 KHz
Compression mode : Lossy
Stream size : 73.2 MiB (10%)
Alignment : Aligned on interleaves
Interleave, duration : 42 ms (1.00 video frame)
Interleave, preload duration : 504 ms
Writing library : LAME3.99r
Encoding settings : -m s -V 4 -q 2 -lowpass 17 -b 128
Сэмпл
 

Вложения

  • 15,9 KB Просмотры: 0
    Личеров 0
    Сидеров 0
    Файлов 2
    Объем 1,5 GB
Ваш e-mail не будет опубликован. Он потребуется для подтверждения Вашего поста.
Оформление текста Нажмите «Ввод», чтобы отправить ответ.