За сегодня опубликовано 16 новых материалов.
Инструкция новичку Путеводитель по форуму Прокси для Telegram Показать подсказки , это бомба!

Скачать Мексиканец / The Mexican (2001) BDRip-HEVC 1080p от Spartanec1308 | D, P, A бесплатно через торрент

  • 90% материалов доступно к скачиванию после простой регистрации!
    Если же ты хочешь скачивать материалы без требования оставлять отзывы то получи группу "Новичок", 10 способов повышения описаны тут -> ссылка
  • К сожалению количество битых ссылок растет и мы уже не можем их оперативно восстанавливать поэтому просим помощи у каждого нашего пользователя.
    С сегодняшнего дня, за каждую восстановленную ссылку мы заплатим Вам.
    Подробнее тут -> ссылка
  • Перенесем твои заслуги с другого ресурса!
    Мы понимаем как сложно прокачивать аккаунты на форумах, вроде раскачал аккаунт, а тут появляется ресурс в 100 раз круче но тоже с системой прокачки и снова качать аккаунт...
    Предлагаем вам перенести Ваши заслуги на другом подобном ресурсе к нам.
    Подробности описаны тут -> ссылка
  • Вы можете получать по 2.5% с каждой покупки и продажи на маркете! Подробности в теме Партнёрская программа
Если Вы не хотите скачивать, Вы всегда можете посмотреть онлайн, просто нажмите кнопку ниже :

Открыть плеер

Torrent_Bot

Торрент-Бот
Бот форума
4 Окт 2016
125
17
20



Информация о фильме
Название: Мексиканец
Оригинальное название: The Mexican
Год выхода: 2001
Жанр: Мелодрама, комедия, криминал, приключения
Режиссер: Гор Вербински
В ролях: Брэд Питт, Джулия Робертс, Джеймс Гандольфини, Дж.К. Симмонс, Боб Бэлабан, Шерман Огастас, Майкл Серверис, Джин Хэкмен, Ричард Кока, Дэвид Крамхолц, Кастуло Герра, Майра Сербуло, Сальвадор Санчес, Алан Сьянгеротти, Мелиса Ромеро, Эрнесто Гомес Крус, Дэниэл Эскобар, Дэйл Рауль, Джереми Робертс, Жорже Малпика, Педро Армендарис мл., Стив Росси, Клинт Кертис, Лоуренс Бендер, Ариан Пеллисер, Карлос Лакамара, Дэниэл Зацапа, Альфредо Эскобар, Луис Артагнан, Фермин Мартинес, Хосе Карлос Родригез

О фильме:
Мелкий гангстер Джерри Уэлбах получает в один день сразу два ультиматума. Его босс — главарь банды — требует, чтобы Джерри срочно разыскал в Мексике бесценный антикварный пистолет, прозванный «Мексиканец», или… незамедлительно вернул все долги. Его подружка Саманта тоже ставит вопрос ребром: или она или банда. Из двух зол Джерри выбирает меньшее, и отправляется в Мексику за пистолетом. Но вскоре выясняется, что заполучить «Мексиканца» мечтает не он один. Но и два профессиональных киллера…

Официальный сайт

Страна: США
Студия: DreamWorks SKG, Lawrence Bender Productions, Newmarket Capital Group LLC, Pistolero Productions LLC
Продолжительность: 02:03:29
Перевод: Дублированный, Профессиональный (многоголосый закадровый), Авторский (одноголосый закадровый),Оригинал

Файл
Кодек: HEVC x265 10 bit
Качество: BDRip-HEVC 1080p
Видео: 1920x830 , 9241 кбит/сек, 23,976 кадр/сек , HEVC ([email protected]@High) 10 бит
Звук:
1. Русский, AC3, 192 Кбит/сек, 2.0 ch, 48,0 КГц - Дубляж
2. Русский, AC3, 384 Кбит/сек, 5.1 ch,48,0 КГц - Профессиональный многоголосый (Премьер Видео)
3. Русский, AC3, 448 Кбит/сек, 5.1 ch,48,0 КГц - Авторский (Живов)
4. Английский, AC3, 448 Кбит/сек, 5.1 ch,48,0 КГц- Оригинал
Субтитры: Русские, английские

Скриншоты

MI
Общее
Уникальный идентификатор : 266603182012055629465412340268105672570 (0xC891E7B7F306813BEDC6A66909CB277A)
Полное имя : E:ТорентыMeksikanec_2001_BDRip_1080p_[HEVC]_by Spartanec1308.mkv
Формат : Matroska
Версия формата : Version 4
Размер файла : 9,24 Гбайт
Продолжительность : 2 ч. 3 м.
Общий поток : 10,7 Мбит/сек
Название фильма : HEVC by Spartanec1308
Дата кодирования : UTC 2019-05-08 15:09:38
Программа кодирования : mkvmerge v25.0.0 ('Prog Noir') 64-bit
Библиотека кодирования : libebml v1.3.6 + libmatroska v1.4.9
Обложка : Yes
Attachments : cover.jpg / cover2.jpg

Видео
Идентификатор : 1
Формат : HEVC
Формат/Информация : High Efficiency Video Coding
Профиль формата : Main [email protected]@High
Идентификатор кодека : V_MPEGH/ISO/HEVC
Продолжительность : 2 ч. 3 м.
Битрейт : 9241 Кбит/сек
Ширина : 1920 пикселей
Высота : 830 пикселей
Соотношение сторон : 2,35:1
Режим частоты кадров : Постоянный
Частота кадров : 23,976 (24000/1001) кадра/сек
Цветовое пространство : YUV
Субдискретизация насыщенности : 4:2:0
Битовая глубина : 10 бит
Бит/(Пиксели*Кадры) : 0.242
Размер потока : 7,97 Гбайт (86%)
Библиотека кодирования : x265 2.8+66-88ee12651e30:[Windows][MSVC 1900][64 bit] 10bit
Настройки программы : cpuid=1111039 / frame-threads=4 / numa-pools=16 / wpp / no-pmode / no-pme / no-psnr / no-ssim / log-level=2 / input-csp=1 / input-res=1920x830 / interlace=0 / total-frames=177643 / level-idc=41 / high-tier=1 / uhd-bd=0 / ref=5 / no-allow-non-conformance / no-repeat-headers / annexb / no-aud / no-hrd / info / hash=0 / no-temporal-layers / open-gop / min-keyint=23 / keyint=240 / gop-lookahead=0 / bframes=10 / b-adapt=2 / b-pyramid / bframe-bias=0 / rc-lookahead=60 / lookahead-slices=0 / scenecut=40 / radl=0 / no-intra-refresh / ctu=32 / min-cu-size=8 / rect / amp / max-tu-size=32 / tu-inter-depth=4 / tu-intra-depth=4 / limit-tu=1 / rdoq-level=1 / dynamic-rd=0.00 / no-ssim-rd / signhide / tskip / nr-intra=0 / nr-inter=0 / no-constrained-intra / no-strong-intra-smoothing / max-merge=5 / limit-refs=1 / limit-modes / me=3 / subme=7 / merange=57 / temporal-mvp / weightp / weightb / no-analyze-src-pics / deblock=-3:-3 / no-sao / no-sao-non-deblock / rd=6 / no-early-skip / no-rskip / no-fast-intra / no-tskip-fast / no-cu-lossless / b-intra / no-splitrd-skip / rdpenalty=0 / psy-rd=1.00 / psy-rdoq=1.00 / no-rd-refine / no-lossless / cbqpoffs=-2 / crqpoffs=-2 / rc=crf / crf=18.0 / qcomp=0.70 / qpstep=4 / stats-write=0 / stats-read=0 / vbv-maxrate=50000 / vbv-bufsize=50000 / vbv-init=0.9 / crf-max=0.0 / crf-min=0.0 / ipratio=1.40 / pbratio=1.30 / aq-mode=1 / aq-strength=0.70 / no-cutree / zone-count=1 / zones: / start-frame=169282 / end-frame=177643 / qp=36 / no-strict-cbr / qg-size=32 / no-rc-grain / qpmax=69 / qpmin=0 / no-const-vbv / sar=1 / overscan=0 / videoformat=5 / range=0 / colorprim=1 / transfer=1 / colormatrix=1 / chromaloc=0 / display-window=0 / max-cll=0,0 / min-luma=0 / max-luma=1023 / log2-max-poc-lsb=8 / vui-timing-info / vui-hrd-info / slices=1 / no-opt-qp-pps / no-opt-ref-list-length-pps / no-multi-pass-opt-rps / scenecut-bias=0.05 / no-opt-cu-delta-qp / no-aq-motion / no-hdr / no-hdr-opt / no-dhdr10-opt / no-idr-recovery-sei / analysis-reuse-level=5 / scale-factor=0 / refine-intra=0 / refine-inter=0 / refine-mv=0 / no-limit-sao / ctu-info=0 / no-lowpass-dct / refine-mv-type=0 / copy-pic=1 / max-ausize-factor=1.0 / no-dynamic-refine / no-single-sei
Default : Да
Forced : Нет
Цветовой диапазон : Limited
Основные цвета : BT.709
Характеристики трансфера : BT.709
Коэффициенты матрицы : BT.709

Аудио #1
Идентификатор : 2
Формат : AC-3
Формат/Информация : Audio Coding 3
Коммерческое название : Dolby Digital
Идентификатор кодека : A_AC3
Продолжительность : 2 ч. 3 м.
Вид битрейта : Постоянный
Битрейт : 192 Кбит/сек
Каналы : 2 канала
Channel layout : L R
Частота : 48,0 КГц
Частота кадров : 31,250 кадров/сек (1536 SPF)
Битовая глубина : 16 бит
Метод сжатия : С потерями
Размер потока : 169 Мбайт (2%)
Заголовок : Дубляж
Язык : Russian
ServiceKind : Complete Main
Default : Да
Forced : Нет

Аудио #2
Идентификатор : 3
Формат : AC-3
Формат/Информация : Audio Coding 3
Коммерческое название : Dolby Digital
Идентификатор кодека : A_AC3
Продолжительность : 2 ч. 3 м.
Вид битрейта : Постоянный
Битрейт : 384 Кбит/сек
Каналы : 6 каналов
Channel layout : L R C LFE Ls Rs
Частота : 48,0 КГц
Частота кадров : 31,250 кадров/сек (1536 SPF)
Битовая глубина : 16 бит
Метод сжатия : С потерями
Размер потока : 339 Мбайт (4%)
Заголовок : MVO Премьер-видео
Язык : Russian
ServiceKind : Complete Main
Default : Нет
Forced : Нет

Аудио #3
Идентификатор : 4
Формат : AC-3
Формат/Информация : Audio Coding 3
Коммерческое название : Dolby Digital
Идентификатор кодека : A_AC3
Продолжительность : 2 ч. 3 м.
Вид битрейта : Постоянный
Битрейт : 448 Кбит/сек
Каналы : 6 каналов
Channel layout : L R C LFE Ls Rs
Частота : 48,0 КГц
Частота кадров : 31,250 кадров/сек (1536 SPF)
Битовая глубина : 16 бит
Метод сжатия : С потерями
Размер потока : 396 Мбайт (4%)
Заголовок : AVO Живов
Язык : Russian
ServiceKind : Complete Main
Default : Нет
Forced : Нет

Аудио #4
Идентификатор : 5
Формат : AC-3
Формат/Информация : Audio Coding 3
Коммерческое название : Dolby Digital
Идентификатор кодека : A_AC3
Продолжительность : 2 ч. 3 м.
Вид битрейта : Постоянный
Битрейт : 448 Кбит/сек
Каналы : 6 каналов
Channel layout : L R C LFE Ls Rs
Частота : 48,0 КГц
Частота кадров : 31,250 кадров/сек (1536 SPF)
Битовая глубина : 16 бит
Метод сжатия : С потерями
Размер потока : 396 Мбайт (4%)
Заголовок : Original
Язык : English
ServiceKind : Complete Main
Default : Нет
Forced : Нет

Текст #1
Идентификатор : 6
Формат : UTF-8
Идентификатор кодека : S_TEXT/UTF8
Идентификатор кодека/Информация : UTF-8 Plain Text
Продолжительность : 1 ч. 58 м.
Битрейт : 84 бит/сек
ElementCount : 1121
Размер потока : 72,8 Кбайт (0%)
Заголовок : Russian
Язык : Russian
Default : Нет
Forced : Нет

Текст #2
Идентификатор : 7
Формат : UTF-8
Идентификатор кодека : S_TEXT/UTF8
Идентификатор кодека/Информация : UTF-8 Plain Text
Продолжительность : 2 ч. 2 м.
Битрейт : 52 бит/сек
ElementCount : 1343
Размер потока : 47,3 Кбайт (0%)
Заголовок : Original
Язык : English
Default : Нет
Forced : Нет

Меню
00:00:00.000 : en:The Mexican
00:13:28.265 : en:Via Con Dios
00:23:58.019 : en:El Camino
00:33:51.738 : en:Señor Beck
00:40:45.025 : en:The Legend of the Pistola
00:48:35.203 : en:These Boots
00:54:51.288 : en:Sam and Leroy
01:00:31.919 : en:Jerry and the Dog
01:05:15.202 : en:Trust Issues
01:10:31.310 : en:It's The American Way
01:16:25.747 : en:A Moment
01:21:09.865 : en:The Legend Part Dos
01:25:17.487 : en:Three's A Crowd
01:37:20.667 : en:Safety Dance
01:45:14.016 : en:She's In Vegas
01:57:40.636 : en:Why Can't We Be Friends
02:03:29.193 : en:Yu're My Guy

Релиз от: Spartanec1308
 

Вложения

  • 47,1 KB Просмотры: 0
    Личеров 0
    Сидеров 0
    Файлов 1
    Объем 9,2 GB
Ваш e-mail не будет опубликован. Он потребуется для подтверждения Вашего поста.
Оформление текста Нажмите «Ввод», чтобы отправить ответ.

Привет!

Мы группа людей которые решили помочь другим в решении их проблем, а так же пользователям с поиском самых свежих и качественных инфопродуктов. За 4 с небольшим месяца мы создали этот форум на который заходят ежедневно тысячи человек и посещаемость постоянно растёт. Мы создали панель лицензирования для защиты PHP скриптов от воровства и SEO панель для мониторинга наших сайтов и выбора верной стратегии их развития. Мы надеемся что то что мы создали пригодится Вам и возможно Вы поможете нам развиваться и совершенствоваться вместе с Вами.

Статистика форума

Темы
347.672
Сообщения
373.572
Пользователи
28.926
Новый пользователь
cargons

Приложения форума для iOS и Android


У ркн там нет власти ;)