За сегодня опубликовано 0 новых материалов.
Инструкция новичку Путеводитель по форуму Прокси для Telegram Показать подсказки , это бомба!

Скачать Мастера меча онлайн / Sword Art Online [03x01-19 из 24] (2018) HDTVRip 720p от JAM CLUB | L2 бесплатно через торрент

  • Получай до 480 рублей за каждого приглашенного пользователя!
    представляем Вам очередное расширение партнерской программы, подробности описаны тут -> ссылка
  • 90% материалов доступно к скачиванию после простой регистрации!
    Если же ты хочешь скачивать материалы без требования оставлять отзывы то получи группу "Новичок", 10 способов повышения описаны тут -> ссылка
  • К сожалению количество битых ссылок растет и мы уже не можем их оперативно восстанавливать поэтому просим помощи у каждого нашего пользователя.
    С сегодняшнего дня, за каждую восстановленную ссылку мы заплатим Вам.
    Подробнее тут -> ссылка
  • Перенесем твои заслуги с другого ресурса!
    Мы понимаем как сложно прокачивать аккаунты на форумах, вроде раскачал аккаунт, а тут появляется ресурс в 100 раз круче но тоже с системой прокачки и снова качать аккаунт...
    Предлагаем вам перенести Ваши заслуги на другом подобном ресурсе к нам.
    Подробности описаны тут -> ссылка
  • Вы можете получать по 2.5% с каждой покупки и продажи на маркете! Подробности в теме Партнёрская программа

Torrent_Bot

Торрент-Бот
Бот форума
4 Окт 2016
125
32
20



Информация о фильме
Название: Мастера меча онлайн: Алисизация
Оригинальное название: Sword Art Online: Alicization
Страна: Япония
Год выхода: 2018-2019
Жанр: Приключения, фэнтези
Режиссер: Манабу Оно
Автор оригинала: Кавахара Рэки / 川原礫


О фильме: Порой чрезмерное увлечение компьютерными играми может привести к непредсказуемым последствиям. Вот так и школьник Казуто Киригая по прозвищу Кирито оказался запертым в онлайн-игре "Мастера меча онлайн”. Условия были жестокими, включая смерть в реальной жизни, но Кирито удалось выйти сухим из воды. После этих событий, в Кирито признали профессионала, и даже специально попросили его погрузиться в другую игру "Оружейный шторм онлайн”, чтобы помочь полиции в расследовании преступления. И с этим он тоже справляется. В событиях этого сезона Кирито устраивается на работу в организацию "RATH”, основным проектом которой является проект "Алисизация”. Но мало кто знает, что этот проект на самом деле - разработки правительства Японии. Кирито погружается в виртуальный мир "Андерворлд”. В отличие от предыдущих миров, в которых находился Кирито, "Андерворлд” не является игрой. Здесь ему предстоит всего за 3 дня в нашем мире прожить целых 10 лет в виртуальной реальности. Однако, вернувшись, он забывает обо всём, что с ним там происходило. Позже Кирито вновь возвращается в "Андерворлд”, чтобы выполнить определённую цель, и теперь ему нужно осваивать всё с чистого листа.

Студия:

Продолжительность: 1 x ~ 00:48:00, 18 x ~ 00:24:00
Перевод: Любительский двухголосый
Озвучили: JAM & Nika Lenina (JAMCLUB)
Сборка контейнера: Eugeo

Файл
Формат: mp4
Качество: HDTVRip 720p
Видео: H.264; 1280x720; ~ 2000 Kbps, 23.976fps; (8 bit)
Аудио 1: AAC 48000 Hz, 2.0, 192 kbps Язык Русский
Аудио 2: AAC 48000 Hz, 2.0, ~ 209 kbps Язык Японский
Субтитры: (внешние ASS) Язык субтитров русский ; Перевод: Sovetromantica

Инфо-файл
Общее
Полное имя : K:KinozalSword Art Online [Alicization JAM_CLUB]Sword Art Online Alicization - 01 (JAM & Nika Lenina ).ass
Размер файла : 68,0 Кбайт

Общее
Полное имя : K:KinozalSword Art Online [Alicization JAM_CLUB]Sword Art Online Alicization - 01 (JAM & Nika Lenina ).mp4
Формат : MPEG-4
Профиль формата : Base Media
Идентификатор кодека : isom
Размер файла : 1,42 Гбайт
Продолжительность : 47 м.
Общий поток : 4237 Кбит/сек

Видео
Идентификатор : 1
Формат : AVC
Формат/Информация : Advanced Video Codec
Профиль формата : [email protected]
Параметр CABAC формата : Да
Параметр ReFrames формата : 4 кадра
Идентификатор кодека : avc1
Идентификатор кодека/Информация : Advanced Video Coding
Продолжительность : 47 м.
Битрейт : 3841 Кбит/сек
Ширина : 1280 пикселей
Высота : 720 пикселей
Соотношение сторон : 16:9
Режим частоты кадров : Переменный
Частота кадров : 23,976 кадра/сек
Минимальная частота кадров : 23,810 кадра/сек
Максимальная частота кадров : 24,390 кадра/сек
Цветовое пространство : YUV
Субдискретизация насыщенности : 4:2:0
Битовая глубина : 8 бит
Тип развёртки : Прогрессивная
Бит/(Пиксели*Кадры) : 0.174
Размер потока : 1,29 Гбайт (91%)
Библиотека кодирования : x264 core 129 r2245+729M 1a52e03
Настройки программы : cabac=1 / ref=4 / deblock=1:1:-1 / analyse=0x3:0x113 / me=umh / subme=9 / psy=1 / fade_compensate=0.00 / psy_rd=1.00:0.00 / mixed_ref=1 / me_range=24 / chroma_me=1 / trellis=2 / 8x8dct=1 / cqm=0 / deadzone=21,11 / fast_pskip=1 / chroma_qp_offset=-2 / threads=8 / lookahead_threads=1 / sliced_threads=0 / nr=0 / decimate=1 / interlaced=0 / bluray_compat=0 / constrained_intra=0 / fgo=0 / bframes=9 / b_pyramid=2 / b_adapt=2 / b_bias=0 / direct=1 / weightb=1 / open_gop=0 / weightp=2 / keyint=240 / keyint_min=24 / scenecut=40 / intra_refresh=0 / rc=crf / mbtree=0 / crf=16.5 / qcomp=0.72 / qpmin=0 / qpmax=69 / qpstep=4 / ip_ratio=1.40 / pb_ratio=1.30 / aq=1:0.85
Цветовой диапазон : Limited
Основные цвета : BT.709
Характеристики трансфера : BT.709
Коэффициенты матрицы : BT.709

Аудио #1
Идентификатор : 2
Формат : AAC
Формат/Информация : Advanced Audio Codec
Профиль формата : LC
Идентификатор кодека : 40
Продолжительность : 47 м.
Вид битрейта : Постоянный
Битрейт : 192 Кбит/сек
Каналы : 2 канала
Расположение каналов : Front: L R
Частота : 48,0 КГц
Метод сжатия : С потерями
Размер потока : 65,9 Мбайт (5%)
Заголовок : JAM & Nika Lenina
Язык : Russian

Аудио #2
Идентификатор : 3
Формат : AAC
Формат/Информация : Advanced Audio Codec
Профиль формата : LC
Идентификатор кодека : 40
Продолжительность : 47 м.
Вид битрейта : Постоянный
Битрейт : 192 Кбит/сек
Каналы : 2 канала
Расположение каналов : Front: L R
Частота : 48,0 КГц
Метод сжатия : С потерями
Размер потока : 65,7 Мбайт (5%)
Язык : Japanese

Общее
Полное имя : K:KinozalSword Art Online [Alicization JAM_CLUB]Sword Art Online Alicization - 02 (JAM & Nika Lenina ).ass
Размер файла : 31,3 Кбайт

Общее
Полное имя : K:KinozalSword Art Online [Alicization JAM_CLUB]Sword Art Online Alicization - 02 (JAM & Nika Lenina ).mp4
Формат : MPEG-4
Профиль формата : Base Media
Идентификатор кодека : isom
Размер файла : 375 Мбайт
Продолжительность : 24 м.
Режим общего битрейта : Переменный
Общий поток : 2183 Кбит/сек
Дата кодирования : UTC 2018-10-13 22:21:53
Дата пометки : UTC 2018-10-13 22:21:53
Программа кодирования : Yamb 2.1.0.0 [Yamb » Yet Another MP4Box UI]

Видео
Идентификатор : 1
Формат : AVC
Формат/Информация : Advanced Video Codec
Профиль формата : [email protected]
Параметр CABAC формата : Да
Параметр ReFrames формата : 4 кадра
Идентификатор кодека : avc1
Идентификатор кодека/Информация : Advanced Video Coding
Продолжительность : 24 м.
Битрейт : 1781 Кбит/сек
Максимальный битрейт : 12,5 Мбит/сек
Ширина : 1280 пикселей
Высота : 720 пикселей
Соотношение сторон : 16:9
Режим частоты кадров : Переменный
Частота кадров : 23,976 кадра/сек
Минимальная частота кадров : 10,000 кадров/сек
Максимальная частота кадров : 24,390 кадра/сек
Цветовое пространство : YUV
Субдискретизация насыщенности : 4:2:0
Битовая глубина : 8 бит
Тип развёртки : Прогрессивная
Бит/(Пиксели*Кадры) : 0.081
Размер потока : 306 Мбайт (82%)
Библиотека кодирования : x264 core 157 r2935 545de2f
Настройки программы : cabac=1 / ref=3 / deblock=1:0:0 / analyse=0x1:0x111 / me=hex / subme=7 / psy=1 / psy_rd=1.00:0.00 / mixed_ref=1 / me_range=16 / chroma_me=1 / trellis=1 / 8x8dct=0 / cqm=0 / deadzone=21,11 / fast_pskip=1 / chroma_qp_offset=-2 / threads=18 / lookahead_threads=3 / sliced_threads=0 / nr=0 / decimate=1 / interlaced=0 / bluray_compat=0 / constrained_intra=0 / bframes=3 / b_pyramid=2 / b_adapt=1 / b_bias=0 / direct=1 / weightb=1 / open_gop=0 / weightp=2 / keyint=240 / keyint_min=1 / scenecut=40 / intra_refresh=0 / rc_lookahead=40 / rc=crf / mbtree=1 / crf=20.0 / qcomp=0.60 / qpmin=0 / qpmax=69 / qpstep=4 / ip_ratio=1.40 / aq=1:1.50
Дата кодирования : UTC 2018-10-13 15:35:36
Дата пометки : UTC 2018-10-13 22:22:07
Цветовой диапазон : Limited
Основные цвета : BT.709
Характеристики трансфера : BT.709
Коэффициенты матрицы : BT.709

Аудио #1
Идентификатор : 2
Формат : AAC
Формат/Информация : Advanced Audio Codec
Профиль формата : LC
Идентификатор кодека : 40
Продолжительность : 24 м.
Вид битрейта : Переменный
Битрейт : 192 Кбит/сек
Максимальный битрейт : 201 Кбит/сек
Каналы : 2 канала
Расположение каналов : Front: L R
Частота : 48,0 КГц
Метод сжатия : С потерями
Размер потока : 33,0 Мбайт (9%)
Заголовок : JAM & Nika Lenina
Язык : Russian
Дата кодирования : UTC 2018-10-13 22:21:59
Дата пометки : UTC 2018-10-13 22:22:07

Аудио #2
Идентификатор : 3
Формат : AAC
Формат/Информация : Advanced Audio Codec
Профиль формата : LC
Идентификатор кодека : 40
Продолжительность : 24 м.
Вид битрейта : Переменный
Битрейт : 202 Кбит/сек
Максимальный битрейт : 270 Кбит/сек
Каналы : 2 канала
Расположение каналов : Front: L R
Частота : 48,0 КГц
Метод сжатия : С потерями
Размер потока : 34,6 Мбайт (9%)
Дата кодирования : UTC 2018-10-13 22:22:00
Дата пометки : UTC 2018-10-13 22:22:07

Общее
Полное имя : K:KinozalSword Art Online [Alicization JAM_CLUB]Sword Art Online Alicization - 03 (JAM & Nika Lenina ).ass
Размер файла : 35,2 Кбайт

Общее
Полное имя : K:KinozalSword Art Online [Alicization JAM_CLUB]Sword Art Online Alicization - 03 (JAM & Nika Lenina ).mp4
Формат : MPEG-4
Профиль формата : Base Media
Идентификатор кодека : isom
Размер файла : 380 Мбайт
Продолжительность : 24 м.
Режим общего битрейта : Переменный
Общий поток : 2211 Кбит/сек
Дата кодирования : UTC 2018-10-20 18:32:05
Дата пометки : UTC 2018-10-20 18:32:05
Программа кодирования : Yamb 2.1.0.0 [Yamb » Yet Another MP4Box UI]

Видео
Идентификатор : 1
Формат : AVC
Формат/Информация : Advanced Video Codec
Профиль формата : [email protected]
Параметр CABAC формата : Да
Параметр ReFrames формата : 4 кадра
Идентификатор кодека : avc1
Идентификатор кодека/Информация : Advanced Video Coding
Продолжительность : 24 м.
Битрейт : 1820 Кбит/сек
Максимальный битрейт : 13,3 Мбит/сек
Ширина : 1280 пикселей
Высота : 720 пикселей
Соотношение сторон : 16:9
Режим частоты кадров : Переменный
Частота кадров : 23,976 кадра/сек
Минимальная частота кадров : 8,547 кадров/сек
Максимальная частота кадров : 24,390 кадра/сек
Цветовое пространство : YUV
Субдискретизация насыщенности : 4:2:0
Битовая глубина : 8 бит
Тип развёртки : Прогрессивная
Бит/(Пиксели*Кадры) : 0.082
Размер потока : 312 Мбайт (82%)
Библиотека кодирования : x264 core 157 r2935 545de2f
Настройки программы : cabac=1 / ref=3 / deblock=1:0:0 / analyse=0x1:0x111 / me=hex / subme=7 / psy=1 / psy_rd=1.00:0.00 / mixed_ref=1 / me_range=16 / chroma_me=1 / trellis=1 / 8x8dct=0 / cqm=0 / deadzone=21,11 / fast_pskip=1 / chroma_qp_offset=-2 / threads=18 / lookahead_threads=3 / sliced_threads=0 / nr=0 / decimate=1 / interlaced=0 / bluray_compat=0 / constrained_intra=0 / bframes=3 / b_pyramid=2 / b_adapt=1 / b_bias=0 / direct=1 / weightb=1 / open_gop=0 / weightp=2 / keyint=240 / keyint_min=1 / scenecut=40 / intra_refresh=0 / rc_lookahead=40 / rc=crf / mbtree=1 / crf=20.0 / qcomp=0.60 / qpmin=0 / qpmax=69 / qpstep=4 / ip_ratio=1.40 / aq=1:1.50
Дата кодирования : UTC 2018-10-20 15:33:51
Дата пометки : UTC 2018-10-20 18:32:21
Цветовой диапазон : Limited
Основные цвета : BT.709
Характеристики трансфера : BT.709
Коэффициенты матрицы : BT.709

Аудио #1
Идентификатор : 2
Формат : AAC
Формат/Информация : Advanced Audio Codec
Профиль формата : LC
Идентификатор кодека : 40
Продолжительность : 24 м.
Вид битрейта : Переменный
Битрейт : 192 Кбит/сек
Максимальный битрейт : 200 Кбит/сек
Каналы : 2 канала
Расположение каналов : Front: L R
Частота : 48,0 КГц
Метод сжатия : С потерями
Размер потока : 33,0 Мбайт (9%)
Заголовок : JAM & Nika Lenina
Язык : Russian
Дата кодирования : UTC 2018-10-20 18:32:13
Дата пометки : UTC 2018-10-20 18:32:21

Аудио #2
Идентификатор : 3
Формат : AAC
Формат/Информация : Advanced Audio Codec
Профиль формата : LC
Идентификатор кодека : 40
Продолжительность : 24 м.
Вид битрейта : Переменный
Битрейт : 192 Кбит/сек
Максимальный битрейт : 273 Кбит/сек
Каналы : 2 канала
Расположение каналов : Front: L R
Частота : 48,0 КГц
Метод сжатия : С потерями
Размер потока : 32,8 Мбайт (9%)
Язык : Japanese
Дата кодирования : UTC 2018-10-20 18:32:14
Дата пометки : UTC 2018-10-20 18:32:21

Общее
Полное имя : K:KinozalSword Art Online [Alicization JAM_CLUB]Sword Art Online Alicization - 04 (JAM & Nika Lenina ).ass
Размер файла : 26,6 Кбайт

Общее
Полное имя : K:KinozalSword Art Online [Alicization JAM_CLUB]Sword Art Online Alicization - 04 (JAM & Nika Lenina ).mp4
Формат : MPEG-4
Профиль формата : Base Media
Идентификатор кодека : isom
Размер файла : 450 Мбайт
Продолжительность : 24 м.
Режим общего битрейта : Переменный
Общий поток : 2621 Кбит/сек
Дата кодирования : UTC 2018-10-28 03:42:28
Дата пометки : UTC 2018-10-28 03:42:28
Программа кодирования : Yamb 2.1.0.0 [Yamb » Yet Another MP4Box UI]

Видео
Идентификатор : 1
Формат : AVC
Формат/Информация : Advanced Video Codec
Профиль формата : [email protected]
Параметр CABAC формата : Да
Параметр ReFrames формата : 4 кадра
Идентификатор кодека : avc1
Идентификатор кодека/Информация : Advanced Video Coding
Продолжительность : 24 м.
Битрейт : 2205 Кбит/сек
Максимальный битрейт : 13,6 Мбит/сек
Ширина : 1280 пикселей
Высота : 720 пикселей
Соотношение сторон : 16:9
Режим частоты кадров : Переменный
Частота кадров : 23,976 кадра/сек
Минимальная частота кадров : 13,889 кадров/сек
Максимальная частота кадров : 24,390 кадра/сек
Цветовое пространство : YUV
Субдискретизация насыщенности : 4:2:0
Битовая глубина : 8 бит
Тип развёртки : Прогрессивная
Бит/(Пиксели*Кадры) : 0.100
Размер потока : 379 Мбайт (84%)
Библиотека кодирования : x264 core 157 r2935 545de2f
Настройки программы : cabac=1 / ref=3 / deblock=1:0:0 / analyse=0x1:0x111 / me=hex / subme=7 / psy=1 / psy_rd=1.00:0.00 / mixed_ref=1 / me_range=16 / chroma_me=1 / trellis=1 / 8x8dct=0 / cqm=0 / deadzone=21,11 / fast_pskip=1 / chroma_qp_offset=-2 / threads=18 / lookahead_threads=3 / sliced_threads=0 / nr=0 / decimate=1 / interlaced=0 / bluray_compat=0 / constrained_intra=0 / bframes=3 / b_pyramid=2 / b_adapt=1 / b_bias=0 / direct=1 / weightb=1 / open_gop=0 / weightp=2 / keyint=240 / keyint_min=1 / scenecut=40 / intra_refresh=0 / rc_lookahead=40 / rc=crf / mbtree=1 / crf=20.0 / qcomp=0.60 / qpmin=0 / qpmax=69 / qpstep=4 / ip_ratio=1.40 / aq=1:1.50
Дата кодирования : UTC 2018-10-27 15:36:51
Дата пометки : UTC 2018-10-28 03:42:45
Цветовой диапазон : Limited
Основные цвета : BT.709
Характеристики трансфера : BT.709
Коэффициенты матрицы : BT.709

Аудио #1
Идентификатор : 2
Формат : AAC
Формат/Информация : Advanced Audio Codec
Профиль формата : LC
Идентификатор кодека : 40
Продолжительность : 24 м.
Вид битрейта : Переменный
Битрейт : 192 Кбит/сек
Максимальный битрейт : 198 Кбит/сек
Каналы : 2 канала
Расположение каналов : Front: L R
Частота : 48,0 КГц
Метод сжатия : С потерями
Размер потока : 33,0 Мбайт (7%)
Заголовок : JAM & Nika Lenina
Язык : Russian
Дата кодирования : UTC 2018-10-28 03:42:37
Дата пометки : UTC 2018-10-28 03:42:45

Аудио #2
Идентификатор : 3
Формат : AAC
Формат/Информация : Advanced Audio Codec
Профиль формата : LC
Идентификатор кодека : 40
Продолжительность : 24 м.
Вид битрейта : Переменный
Битрейт : 216 Кбит/сек
Максимальный битрейт : 265 Кбит/сек
Каналы : 2 канала
Расположение каналов : Front: L R
Частота : 48,0 КГц
Метод сжатия : С потерями
Размер потока : 37,0 Мбайт (8%)
Язык : Japanese
Дата кодирования : UTC 2018-10-28 03:42:38
Дата пометки : UTC 2018-10-28 03:42:45

Общее
Полное имя : K:KinozalSword Art Online [Alicization JAM_CLUB]Sword Art Online Alicization - 05 (JAM & Nika Lenina ).ass
Размер файла : 35,4 Кбайт

Общее
Полное имя : K:KinozalSword Art Online [Alicization JAM_CLUB]Sword Art Online Alicization - 05 (JAM & Nika Lenina ).mp4
Формат : MPEG-4
Профиль формата : Base Media
Идентификатор кодека : isom
Размер файла : 348 Мбайт
Продолжительность : 24 м.
Режим общего битрейта : Переменный
Общий поток : 2025 Кбит/сек
Дата кодирования : UTC 2018-11-05 19:08:51
Дата пометки : UTC 2018-11-05 19:08:51
Программа кодирования : Yamb 2.1.0.0 [Yamb » Yet Another MP4Box UI]

Видео
Идентификатор : 1
Формат : AVC
Формат/Информация : Advanced Video Codec
Профиль формата : [email protected]
Параметр CABAC формата : Да
Параметр ReFrames формата : 4 кадра
Идентификатор кодека : avc1
Идентификатор кодека/Информация : Advanced Video Coding
Продолжительность : 24 м.
Битрейт : 1627 Кбит/сек
Максимальный битрейт : 12,5 Мбит/сек
Ширина : 1280 пикселей
Высота : 720 пикселей
Соотношение сторон : 16:9
Режим частоты кадров : Переменный
Частота кадров : 23,976 кадра/сек
Минимальная частота кадров : 9,174 кадров/сек
Максимальная частота кадров : 24,390 кадра/сек
Цветовое пространство : YUV
Субдискретизация насыщенности : 4:2:0
Битовая глубина : 8 бит
Тип развёртки : Прогрессивная
Бит/(Пиксели*Кадры) : 0.074
Размер потока : 279 Мбайт (80%)
Библиотека кодирования : x264 core 157 r2935 545de2f
Настройки программы : cabac=1 / ref=3 / deblock=1:0:0 / analyse=0x1:0x111 / me=hex / subme=7 / psy=1 / psy_rd=1.00:0.00 / mixed_ref=1 / me_range=16 / chroma_me=1 / trellis=1 / 8x8dct=0 / cqm=0 / deadzone=21,11 / fast_pskip=1 / chroma_qp_offset=-2 / threads=22 / lookahead_threads=3 / sliced_threads=0 / nr=0 / decimate=1 / interlaced=0 / bluray_compat=0 / constrained_intra=0 / bframes=3 / b_pyramid=2 / b_adapt=1 / b_bias=0 / direct=1 / weightb=1 / open_gop=0 / weightp=2 / keyint=240 / keyint_min=1 / scenecut=40 / intra_refresh=0 / rc_lookahead=40 / rc=crf / mbtree=1 / crf=20.0 / qcomp=0.60 / qpmin=0 / qpmax=69 / qpstep=4 / ip_ratio=1.40 / aq=1:1.50
Дата кодирования : UTC 2018-11-03 15:32:50
Дата пометки : UTC 2018-11-05 19:09:05
Цветовой диапазон : Limited
Основные цвета : BT.709
Характеристики трансфера : BT.709
Коэффициенты матрицы : BT.709

Аудио #1
Идентификатор : 2
Формат : AAC
Формат/Информация : Advanced Audio Codec
Профиль формата : LC
Идентификатор кодека : 40
Продолжительность : 24 м.
Вид битрейта : Переменный
Битрейт : 192 Кбит/сек
Максимальный битрейт : 200 Кбит/сек
Каналы : 2 канала
Расположение каналов : Front: L R
Частота : 48,0 КГц
Метод сжатия : С потерями
Размер потока : 33,0 Мбайт (9%)
Заголовок : JAM & Nika Lenina
Язык : Russian
Дата кодирования : UTC 2018-11-05 19:08:57
Дата пометки : UTC 2018-11-05 19:09:05

Аудио #2
Идентификатор : 3
Формат : AAC
Формат/Информация : Advanced Audio Codec
Профиль формата : LC
Идентификатор кодека : 40
Продолжительность : 24 м.
Вид битрейта : Переменный
Битрейт : 198 Кбит/сек
Максимальный битрейт : 257 Кбит/сек
Каналы : 2 канала
Расположение каналов : Front: L R
Частота : 48,0 КГц
Метод сжатия : С потерями
Размер потока : 34,1 Мбайт (10%)
Язык : Japanese
Дата кодирования : UTC 2018-11-05 19:08:58
Дата пометки : UTC 2018-11-05 19:09:05

Общее
Полное имя : K:KinozalSword Art Online [Alicization JAM_CLUB]Sword Art Online Alicization - 06 (JAM & Nika Lenina ).ass
Размер файла : 43,0 Кбайт

Общее
Полное имя : K:KinozalSword Art Online [Alicization JAM_CLUB]Sword Art Online Alicization - 06 (JAM & Nika Lenina ).mp4
Формат : MPEG-4
Профиль формата : Base Media
Идентификатор кодека : isom
Размер файла : 383 Мбайт
Продолжительность : 24 м.
Режим общего битрейта : Переменный
Общий поток : 2229 Кбит/сек
Дата кодирования : UTC 2018-11-13 12:21:48
Дата пометки : UTC 2018-11-13 12:21:48
Программа кодирования : Yamb 2.1.0.0 [Yamb » Yet Another MP4Box UI]

Видео
Идентификатор : 1
Формат : AVC
Формат/Информация : Advanced Video Codec
Профиль формата : [email protected]
Параметр CABAC формата : Да
Параметр ReFrames формата : 4 кадра
Идентификатор кодека : avc1
Идентификатор кодека/Информация : Advanced Video Coding
Продолжительность : 24 м.
Битрейт : 1838 Кбит/сек
Максимальный битрейт : 21,2 Мбит/сек
Ширина : 1280 пикселей
Высота : 720 пикселей
Соотношение сторон : 16:9
Режим частоты кадров : Переменный
Частота кадров : 23,976 кадра/сек
Минимальная частота кадров : 10,989 кадров/сек
Максимальная частота кадров : 24,390 кадра/сек
Цветовое пространство : YUV
Субдискретизация насыщенности : 4:2:0
Битовая глубина : 8 бит
Тип развёртки : Прогрессивная
Бит/(Пиксели*Кадры) : 0.083
Размер потока : 315 Мбайт (82%)
Библиотека кодирования : x264 core 157 r2935 545de2f
Настройки программы : cabac=1 / ref=3 / deblock=1:0:0 / analyse=0x1:0x111 / me=hex / subme=7 / psy=1 / psy_rd=1.00:0.00 / mixed_ref=1 / me_range=16 / chroma_me=1 / trellis=1 / 8x8dct=0 / cqm=0 / deadzone=21,11 / fast_pskip=1 / chroma_qp_offset=-2 / threads=22 / lookahead_threads=3 / sliced_threads=0 / nr=0 / decimate=1 / interlaced=0 / bluray_compat=0 / constrained_intra=0 / bframes=3 / b_pyramid=2 / b_adapt=1 / b_bias=0 / direct=1 / weightb=1 / open_gop=0 / weightp=2 / keyint=240 / keyint_min=1 / scenecut=40 / intra_refresh=0 / rc_lookahead=40 / rc=crf / mbtree=1 / crf=20.0 / qcomp=0.60 / qpmin=0 / qpmax=69 / qpstep=4 / ip_ratio=1.40 / aq=1:1.50
Дата кодирования : UTC 2018-11-10 15:37:17
Дата пометки : UTC 2018-11-13 12:22:02
Цветовой диапазон : Limited
Основные цвета : BT.709
Характеристики трансфера : BT.709
Коэффициенты матрицы : BT.709

Аудио #1
Идентификатор : 2
Формат : AAC
Формат/Информация : Advanced Audio Codec
Профиль формата : LC
Идентификатор кодека : 40
Продолжительность : 24 м.
Вид битрейта : Переменный
Битрейт : 192 Кбит/сек
Максимальный битрейт : 201 Кбит/сек
Каналы : 2 канала
Расположение каналов : Front: L R
Частота : 48,0 КГц
Метод сжатия : С потерями
Размер потока : 33,0 Мбайт (9%)
Заголовок : JAM & Nika Lenina
Язык : Russian
Дата кодирования : UTC 2018-11-13 12:21:54
Дата пометки : UTC 2018-11-13 12:22:02

Аудио #2
Идентификатор : 3
Формат : AAC
Формат/Информация : Advanced Audio Codec
Профиль формата : LC
Идентификатор кодека : 40
Продолжительность : 24 м.
Вид битрейта : Переменный
Битрейт : 192 Кбит/сек
Максимальный битрейт : 257 Кбит/сек
Каналы : 2 канала
Расположение каналов : Front: L R
Частота : 48,0 КГц
Метод сжатия : С потерями
Размер потока : 32,9 Мбайт (9%)
Язык : Japanese
Дата кодирования : UTC 2018-11-13 12:21:55
Дата пометки : UTC 2018-11-13 12:22:02

Общее
Полное имя : K:KinozalSword Art Online [Alicization JAM_CLUB]Sword Art Online Alicization - 07 (JAM & Nika Lenina ).ass
Размер файла : 39,4 Кбайт

Общее
Полное имя : K:KinozalSword Art Online [Alicization JAM_CLUB]Sword Art Online Alicization - 07 (JAM & Nika Lenina ).mp4
Формат : MPEG-4
Профиль формата : Base Media
Идентификатор кодека : isom
Размер файла : 388 Мбайт
Продолжительность : 24 м.
Режим общего битрейта : Переменный
Общий поток : 2262 Кбит/сек
Дата кодирования : UTC 2018-11-19 19:01:08
Дата пометки : UTC 2018-11-19 19:01:08
Программа кодирования : Yamb 2.1.0.0 [Yamb » Yet Another MP4Box UI]

Видео
Идентификатор : 1
Формат : AVC
Формат/Информация : Advanced Video Codec
Профиль формата : [email protected]
Параметр CABAC формата : Да
Параметр ReFrames формата : 4 кадра
Идентификатор кодека : avc1
Идентификатор кодека/Информация : Advanced Video Coding
Продолжительность : 24 м.
Продолжительность оригинала : 24 м.
Битрейт : 1862 Кбит/сек
Максимальный битрейт : 14,2 Мбит/сек
Ширина : 1280 пикселей
Высота : 720 пикселей
Соотношение сторон : 16:9
Режим частоты кадров : Переменный
Частота кадров : 23,976 кадра/сек
Минимальная частота кадров : 10,417 кадров/сек
Максимальная частота кадров : 24,390 кадра/сек
Цветовое пространство : YUV
Субдискретизация насыщенности : 4:2:0
Битовая глубина : 8 бит
Тип развёртки : Прогрессивная
Бит/(Пиксели*Кадры) : 0.084
Размер потока : 320 Мбайт (82%)
Размер потока оригинала : 320 Мбайт (82%)
Библиотека кодирования : x264 core 157 r2935 545de2f
Настройки программы : cabac=1 / ref=3 / deblock=1:0:0 / analyse=0x1:0x111 / me=hex / subme=7 / psy=1 / psy_rd=1.00:0.00 / mixed_ref=1 / me_range=16 / chroma_me=1 / trellis=1 / 8x8dct=0 / cqm=0 / deadzone=21,11 / fast_pskip=1 / chroma_qp_offset=-2 / threads=22 / lookahead_threads=3 / sliced_threads=0 / nr=0 / decimate=1 / interlaced=0 / bluray_compat=0 / constrained_intra=0 / bframes=3 / b_pyramid=2 / b_adapt=1 / b_bias=0 / direct=1 / weightb=1 / open_gop=0 / weightp=2 / keyint=240 / keyint_min=1 / scenecut=40 / intra_refresh=0 / rc_lookahead=40 / rc=crf / mbtree=1 / crf=20.0 / qcomp=0.60 / qpmin=0 / qpmax=69 / qpstep=4 / ip_ratio=1.40 / aq=1:1.50
Дата кодирования : UTC 2018-11-17 15:32:50
Дата пометки : UTC 2018-11-19 19:01:23
Цветовой диапазон : Limited
Основные цвета : BT.709
Характеристики трансфера : BT.709
Коэффициенты матрицы : BT.709

Аудио #1
Идентификатор : 2
Формат : AAC
Формат/Информация : Advanced Audio Codec
Профиль формата : LC
Идентификатор кодека : 40
Продолжительность : 24 м.
Вид битрейта : Переменный
Битрейт : 192 Кбит/сек
Максимальный битрейт : 199 Кбит/сек
Каналы : 2 канала
Расположение каналов : Front: L R
Частота : 48,0 КГц
Метод сжатия : С потерями
Размер потока : 33,0 Мбайт (8%)
Заголовок : JAM & Nika Lenina
Язык : Russian
Дата кодирования : UTC 2018-11-19 19:01:15
Дата пометки : UTC 2018-11-19 19:01:23

Аудио #2
Идентификатор : 3
Формат : AAC
Формат/Информация : Advanced Audio Codec
Профиль формата : LC
Идентификатор кодека : 40
Продолжительность : 24 м.
Вид битрейта : Переменный
Битрейт : 200 Кбит/сек
Максимальный битрейт : 267 Кбит/сек
Каналы : 2 канала
Расположение каналов : Front: L R
Частота : 48,0 КГц
Метод сжатия : С потерями
Размер потока : 34,4 Мбайт (9%)
Язык : Japanese
Дата кодирования : UTC 2018-11-19 19:01:16
Дата пометки : UTC 2018-11-19 19:01:23

Общее
Полное имя : K:KinozalSword Art Online [Alicization JAM_CLUB]Sword Art Online Alicization - 08 (JAM & Nika Lenina ).ass
Размер файла : 28,0 Кбайт

Общее
Полное имя : K:KinozalSword Art Online [Alicization JAM_CLUB]Sword Art Online Alicization - 08 (JAM & Nika Lenina ).mp4
Формат : MPEG-4
Профиль формата : Base Media
Идентификатор кодека : isom
Размер файла : 397 Мбайт
Продолжительность : 24 м.
Режим общего битрейта : Переменный
Общий поток : 2312 Кбит/сек
Дата кодирования : UTC 2018-11-24 18:30:25
Дата пометки : UTC 2018-11-24 18:30:25
Программа кодирования : Yamb 2.1.0.0 [Yamb » Yet Another MP4Box UI]

Видео
Идентификатор : 1
Формат : AVC
Формат/Информация : Advanced Video Codec
Профиль формата : [email protected]
Параметр CABAC формата : Да
Параметр ReFrames формата : 4 кадра
Идентификатор кодека : avc1
Идентификатор кодека/Информация : Advanced Video Coding
Продолжительность : 24 м.
Продолжительность оригинала : 24 м.
Битрейт : 1905 Кбит/сек
Максимальный битрейт : 17,6 Мбит/сек
Ширина : 1280 пикселей
Высота : 720 пикселей
Соотношение сторон : 16:9
Режим частоты кадров : Переменный
Частота кадров : 23,976 кадра/сек
Минимальная частота кадров : 10,000 кадров/сек
Максимальная частота кадров : 24,390 кадра/сек
Цветовое пространство : YUV
Субдискретизация насыщенности : 4:2:0
Битовая глубина : 8 бит
Тип развёртки : Прогрессивная
Бит/(Пиксели*Кадры) : 0.086
Размер потока : 327 Мбайт (82%)
Размер потока оригинала : 327 Мбайт (82%)
Библиотека кодирования : x264 core 157 r2935 545de2f
Настройки программы : cabac=1 / ref=3 / deblock=1:0:0 / analyse=0x1:0x111 / me=hex / subme=7 / psy=1 / psy_rd=1.00:0.00 / mixed_ref=1 / me_range=16 / chroma_me=1 / trellis=1 / 8x8dct=0 / cqm=0 / deadzone=21,11 / fast_pskip=1 / chroma_qp_offset=-2 / threads=22 / lookahead_threads=3 / sliced_threads=0 / nr=0 / decimate=1 / interlaced=0 / bluray_compat=0 / constrained_intra=0 / bframes=3 / b_pyramid=2 / b_adapt=1 / b_bias=0 / direct=1 / weightb=1 / open_gop=0 / weightp=2 / keyint=240 / keyint_min=1 / scenecut=40 / intra_refresh=0 / rc_lookahead=40 / rc=crf / mbtree=1 / crf=20.0 / qcomp=0.60 / qpmin=0 / qpmax=69 / qpstep=4 / ip_ratio=1.40 / aq=1:1.50
Дата кодирования : UTC 2018-11-24 15:38:01
Дата пометки : UTC 2018-11-24 18:30:41
Цветовой диапазон : Limited
Основные цвета : BT.709
Характеристики трансфера : BT.709
Коэффициенты матрицы : BT.709

Аудио #1
Идентификатор : 2
Формат : AAC
Формат/Информация : Advanced Audio Codec
Профиль формата : LC
Идентификатор кодека : 40
Продолжительность : 24 м.
Вид битрейта : Переменный
Битрейт : 192 Кбит/сек
Максимальный битрейт : 201 Кбит/сек
Каналы : 2 канала
Расположение каналов : Front: L R
Частота : 48,0 КГц
Метод сжатия : С потерями
Размер потока : 33,0 Мбайт (8%)
Заголовок : JAM & Nika Lenina
Язык : Russian
Дата кодирования : UTC 2018-11-24 18:30:33
Дата пометки : UTC 2018-11-24 18:30:41

Аудио #2
Идентификатор : 3
Формат : AAC
Формат/Информация : Advanced Audio Codec
Профиль формата : LC
Идентификатор кодека : 40
Продолжительность : 24 м.
Вид битрейта : Переменный
Битрейт : 207 Кбит/сек
Максимальный битрейт : 260 Кбит/сек
Каналы : 2 канала
Расположение каналов : Front: L R
Частота : 48,0 КГц
Метод сжатия : С потерями
Размер потока : 35,6 Мбайт (9%)
Язык : Japanese
Дата кодирования : UTC 2018-11-24 18:30:34
Дата пометки : UTC 2018-11-24 18:30:41

Общее
Полное имя : K:KinozalSword Art Online [Alicization JAM_CLUB]Sword Art Online Alicization - 09 (JAM & Nika Lenina ).ass
Размер файла : 42,4 Кбайт

Общее
Полное имя : K:KinozalSword Art Online [Alicization JAM_CLUB]Sword Art Online Alicization - 09 (JAM & Nika Lenina ).mp4
Формат : MPEG-4
Профиль формата : Base Media
Идентификатор кодека : isom
Размер файла : 310 Мбайт
Продолжительность : 24 м.
Режим общего битрейта : Переменный
Общий поток : 1808 Кбит/сек
Дата кодирования : UTC 2018-12-02 13:30:44
Дата пометки : UTC 2018-12-02 13:30:44
Программа кодирования : Yamb 2.1.0.0 [Yamb » Yet Another MP4Box UI]

Видео
Идентификатор : 1
Формат : AVC
Формат/Информация : Advanced Video Codec
Профиль формата : [email protected]
Параметр CABAC формата : Да
Параметр ReFrames формата : 4 кадра
Идентификатор кодека : avc1
Идентификатор кодека/Информация : Advanced Video Coding
Продолжительность : 24 м.
Битрейт : 1425 Кбит/сек
Максимальный битрейт : 13,0 Мбит/сек
Ширина : 1280 пикселей
Высота : 720 пикселей
Соотношение сторон : 16:9
Режим частоты кадров : Переменный
Частота кадров : 23,976 кадра/сек
Минимальная частота кадров : 10,000 кадров/сек
Максимальная частота кадров : 24,390 кадра/сек
Цветовое пространство : YUV
Субдискретизация насыщенности : 4:2:0
Битовая глубина : 8 бит
Тип развёртки : Прогрессивная
Бит/(Пиксели*Кадры) : 0.064
Размер потока : 245 Мбайт (79%)
Библиотека кодирования : x264 core 157 r2935 545de2f
Настройки программы : cabac=1 / ref=3 / deblock=1:0:0 / analyse=0x1:0x111 / me=hex / subme=7 / psy=1 / psy_rd=1.00:0.00 / mixed_ref=1 / me_range=16 / chroma_me=1 / trellis=1 / 8x8dct=0 / cqm=0 / deadzone=21,11 / fast_pskip=1 / chroma_qp_offset=-2 / threads=22 / lookahead_threads=3 / sliced_threads=0 / nr=0 / decimate=1 / interlaced=0 / bluray_compat=0 / constrained_intra=0 / bframes=3 / b_pyramid=2 / b_adapt=1 / b_bias=0 / direct=1 / weightb=1 / open_gop=0 / weightp=2 / keyint=240 / keyint_min=1 / scenecut=40 / intra_refresh=0 / rc_lookahead=40 / rc=crf / mbtree=1 / crf=20.0 / qcomp=0.60 / qpmin=0 / qpmax=69 / qpstep=4 / ip_ratio=1.40 / aq=1:1.50
Дата кодирования : UTC 2018-12-01 15:36:26
Дата пометки : UTC 2018-12-02 13:30:58
Цветовой диапазон : Limited
Основные цвета : BT.709
Характеристики трансфера : BT.709
Коэффициенты матрицы : BT.709

Аудио #1
Идентификатор : 2
Формат : AAC
Формат/Информация : Advanced Audio Codec
Профиль формата : LC
Идентификатор кодека : 40
Продолжительность : 24 м.
Вид битрейта : Переменный
Битрейт : 192 Кбит/сек
Максимальный битрейт : 199 Кбит/сек
Каналы : 2 канала
Расположение каналов : Front: L R
Частота : 48,0 КГц
Метод сжатия : С потерями
Размер потока : 33,0 Мбайт (11%)
Заголовок : JAM & Nika Lenina
Язык : Russian
Дата кодирования : UTC 2018-12-02 13:30:50
Дата пометки : UTC 2018-12-02 13:30:58

Аудио #2
Идентификатор : 3
Формат : AAC
Формат/Информация : Advanced Audio Codec
Профиль формата : LC
Идентификатор кодека : 40
Продолжительность : 24 м.
Вид битрейта : Переменный
Битрейт : 183 Кбит/сек
Максимальный битрейт : 256 Кбит/сек
Каналы : 2 канала
Расположение каналов : Front: L R
Частота : 48,0 КГц
Метод сжатия : С потерями
Размер потока : 31,5 Мбайт (10%)
Язык : Japanese
Дата кодирования : UTC 2018-12-02 13:30:51
Дата пометки : UTC 2018-12-02 13:30:58

Общее
Полное имя : K:KinozalSword Art Online [Alicization JAM_CLUB]Sword Art Online Alicization - 10 (JAM & Nika Lenina ).ass
Размер файла : 28,6 Кбайт

Общее
Полное имя : K:KinozalSword Art Online [Alicization JAM_CLUB]Sword Art Online Alicization - 10 (JAM & Nika Lenina ).mp4
Формат : MPEG-4
Профиль формата : Base Media
Идентификатор кодека : isom
Размер файла : 451 Мбайт
Продолжительность : 24 м.
Режим общего битрейта : Переменный
Общий поток : 2629 Кбит/сек
Дата кодирования : UTC 2018-12-08 18:40:25
Дата пометки : UTC 2018-12-08 18:40:25
Программа кодирования : Yamb 2.1.0.0 [Yamb » Yet Another MP4Box UI]

Видео
Идентификатор : 1
Формат : AVC
Формат/Информация : Advanced Video Codec
Профиль формата : [email protected]
Параметр CABAC формата : Да
Параметр ReFrames формата : 4 кадра
Идентификатор кодека : avc1
Идентификатор кодека/Информация : Advanced Video Coding
Продолжительность : 24 м.
Битрейт : 2214 Кбит/сек
Максимальный битрейт : 26,4 Мбит/сек
Ширина : 1280 пикселей
Высота : 720 пикселей
Соотношение сторон : 16:9
Режим частоты кадров : Переменный
Частота кадров : 23,976 кадра/сек
Минимальная частота кадров : 9,901 кадров/сек
Максимальная частота кадров : 24,390 кадра/сек
Цветовое пространство : YUV
Субдискретизация насыщенности : 4:2:0
Битовая глубина : 8 бит
Тип развёртки : Прогрессивная
Бит/(Пиксели*Кадры) : 0.100
Размер потока : 380 Мбайт (84%)
Библиотека кодирования : x264 core 157 r2935 545de2f
Настройки программы : cabac=1 / ref=3 / deblock=1:0:0 / analyse=0x1:0x111 / me=hex / subme=7 / psy=1 / psy_rd=1.00:0.00 / mixed_ref=1 / me_range=16 / chroma_me=1 / trellis=1 / 8x8dct=0 / cqm=0 / deadzone=21,11 / fast_pskip=1 / chroma_qp_offset=-2 / threads=22 / lookahead_threads=3 / sliced_threads=0 / nr=0 / decimate=1 / interlaced=0 / bluray_compat=0 / constrained_intra=0 / bframes=3 / b_pyramid=2 / b_adapt=1 / b_bias=0 / direct=1 / weightb=1 / open_gop=0 / weightp=2 / keyint=240 / keyint_min=1 / scenecut=40 / intra_refresh=0 / rc_lookahead=40 / rc=crf / mbtree=1 / crf=20.0 / qcomp=0.60 / qpmin=0 / qpmax=69 / qpstep=4 / ip_ratio=1.40 / aq=1:1.50
Дата кодирования : UTC 2018-12-08 15:34:55
Дата пометки : UTC 2018-12-08 18:40:39
Цветовой диапазон : Limited
Основные цвета : BT.709
Характеристики трансфера : BT.709
Коэффициенты матрицы : BT.709

Аудио #1
Идентификатор : 2
Формат : AAC
Формат/Информация : Advanced Audio Codec
Профиль формата : LC
Идентификатор кодека : 40
Продолжительность : 24 м.
Вид битрейта : Переменный
Битрейт : 192 Кбит/сек
Максимальный битрейт : 199 Кбит/сек
Каналы : 2 канала
Расположение каналов : Front: L R
Частота : 48,0 КГц
Метод сжатия : С потерями
Размер потока : 33,0 Мбайт (7%)
Заголовок : JAM & Nika Lenina
Язык : Russian
Дата кодирования : UTC 2018-12-08 18:40:32
Дата пометки : UTC 2018-12-08 18:40:39

Аудио #2
Идентификатор : 3
Формат : AAC
Формат/Информация : Advanced Audio Codec
Профиль формата : LC
Идентификатор кодека : 40
Продолжительность : 24 м.
Вид битрейта : Переменный
Битрейт : 215 Кбит/сек
Максимальный битрейт : 273 Кбит/сек
Каналы : 2 канала
Расположение каналов : Front: L R
Частота : 48,0 КГц
Метод сжатия : С потерями
Размер потока : 36,9 Мбайт (8%)
Язык : Japanese
Дата кодирования : UTC 2018-12-08 18:40:33
Дата пометки : UTC 2018-12-08 18:40:39

Общее
Полное имя : K:KinozalSword Art Online [Alicization JAM_CLUB]Sword Art Online Alicization - 11 (JAM & Nika Lenina ).ass
Размер файла : 35,1 Кбайт

Общее
Полное имя : K:KinozalSword Art Online [Alicization JAM_CLUB]Sword Art Online Alicization - 11 (JAM & Nika Lenina ).mp4
Формат : MPEG-4
Профиль формата : Base Media
Идентификатор кодека : isom
Размер файла : 370 Мбайт
Продолжительность : 24 м.
Режим общего битрейта : Переменный
Общий поток : 2154 Кбит/сек
Дата кодирования : UTC 2018-12-15 20:26:30
Дата пометки : UTC 2018-12-15 20:26:30
Программа кодирования : Yamb 2.1.0.0 [Yamb » Yet Another MP4Box UI]

Видео
Идентификатор : 1
Формат : AVC
Формат/Информация : Advanced Video Codec
Профиль формата : [email protected]
Параметр CABAC формата : Да
Параметр ReFrames формата : 4 кадра
Идентификатор кодека : avc1
Идентификатор кодека/Информация : Advanced Video Coding
Продолжительность : 24 м.
Битрейт : 1755 Кбит/сек
Максимальный битрейт : 13,0 Мбит/сек
Ширина : 1280 пикселей
Высота : 720 пикселей
Соотношение сторон : 16:9
Режим частоты кадров : Переменный
Частота кадров : 23,976 кадра/сек
Минимальная частота кадров : 9,709 кадров/сек
Максимальная частота кадров : 24,390 кадра/сек
Цветовое пространство : YUV
Субдискретизация насыщенности : 4:2:0
Битовая глубина : 8 бит
Тип развёртки : Прогрессивная
Бит/(Пиксели*Кадры) : 0.079
Размер потока : 301 Мбайт (81%)
Библиотека кодирования : x264 core 157 r2935 545de2f
Настройки программы : cabac=1 / ref=3 / deblock=1:0:0 / analyse=0x1:0x111 / me=hex / subme=7 / psy=1 / psy_rd=1.00:0.00 / mixed_ref=1 / me_range=16 / chroma_me=1 / trellis=1 / 8x8dct=0 / cqm=0 / deadzone=21,11 / fast_pskip=1 / chroma_qp_offset=-2 / threads=22 / lookahead_threads=3 / sliced_threads=0 / nr=0 / decimate=1 / interlaced=0 / bluray_compat=0 / constrained_intra=0 / bframes=3 / b_pyramid=2 / b_adapt=1 / b_bias=0 / direct=1 / weightb=1 / open_gop=0 / weightp=2 / keyint=240 / keyint_min=1 / scenecut=40 / intra_refresh=0 / rc_lookahead=40 / rc=crf / mbtree=1 / crf=20.0 / qcomp=0.60 / qpmin=0 / qpmax=69 / qpstep=4 / ip_ratio=1.40 / aq=1:1.50
Дата кодирования : UTC 2018-12-15 15:35:34
Дата пометки : UTC 2018-12-15 20:26:42
Цветовой диапазон : Limited
Основные цвета : BT.709
Характеристики трансфера : BT.709
Коэффициенты матрицы : BT.709

Аудио #1
Идентификатор : 2
Формат : AAC
Формат/Информация : Advanced Audio Codec
Профиль формата : LC
Идентификатор кодека : 40
Продолжительность : 24 м.
Вид битрейта : Переменный
Битрейт : 192 Кбит/сек
Максимальный битрейт : 201 Кбит/сек
Каналы : 2 канала
Расположение каналов : Front: L R
Частота : 48,0 КГц
Метод сжатия : С потерями
Размер потока : 33,0 Мбайт (9%)
Заголовок : JAM & Nika Lenina
Язык : Russian
Дата кодирования : UTC 2018-12-15 20:26:34
Дата пометки : UTC 2018-12-15 20:26:42

Аудио #2
Идентификатор : 3
Формат : AAC
Формат/Информация : Advanced Audio Codec
Профиль формата : LC
Идентификатор кодека : 40
Продолжительность : 24 м.
Вид битрейта : Переменный
Битрейт : 199 Кбит/сек
Максимальный битрейт : 269 Кбит/сек
Каналы : 2 канала
Расположение каналов : Front: L R
Частота : 48,0 КГц
Метод сжатия : С потерями
Размер потока : 34,1 Мбайт (9%)
Язык : Japanese
Дата кодирования : UTC 2018-12-15 20:26:35
Дата пометки : UTC 2018-12-15 20:26:42

Общее
Полное имя : K:KinozalSword Art Online [Alicization JAM_CLUB]Sword Art Online Alicization - 12 (JAM & Nika Lenina ).ass
Размер файла : 37,6 Кбайт

Общее
Полное имя : K:KinozalSword Art Online [Alicization JAM_CLUB]Sword Art Online Alicization - 12 (JAM & Nika Lenina ).mp4
Формат : MPEG-4
Профиль формата : Base Media
Идентификатор кодека : isom
Размер файла : 445 Мбайт
Продолжительность : 24 м.
Режим общего битрейта : Переменный
Общий поток : 2594 Кбит/сек
Дата кодирования : UTC 2018-12-24 16:04:33
Дата пометки : UTC 2018-12-24 16:04:33
Программа кодирования : Yamb 2.1.0.0 [Yamb » Yet Another MP4Box UI]

Видео
Идентификатор : 1
Формат : AVC
Формат/Информация : Advanced Video Codec
Профиль формата : [email protected]
Параметр CABAC формата : Да
Параметр ReFrames формата : 4 кадра
Идентификатор кодека : avc1
Идентификатор кодека/Информация : Advanced Video Coding
Продолжительность : 24 м.
Продолжительность оригинала : 24 м.
Битрейт : 2190 Кбит/сек
Максимальный битрейт : 18,1 Мбит/сек
Ширина : 1280 пикселей
Высота : 720 пикселей
Соотношение сторон : 16:9
Режим частоты кадров : Переменный
Частота кадров : 23,976 кадра/сек
Минимальная частота кадров : 8,000 кадров/сек
Максимальная частота кадров : 24,390 кадра/сек
Цветовое пространство : YUV
Субдискретизация насыщенности : 4:2:0
Битовая глубина : 8 бит
Тип развёртки : Прогрессивная
Бит/(Пиксели*Кадры) : 0.099
Размер потока : 376 Мбайт (84%)
Размер потока оригинала : 376 Мбайт (84%)
Библиотека кодирования : x264 core 157 r2935 545de2f
Настройки программы : cabac=1 / ref=3 / deblock=1:0:0 / analyse=0x1:0x111 / me=hex / subme=7 / psy=1 / psy_rd=1.00:0.00 / mixed_ref=1 / me_range=16 / chroma_me=1 / trellis=1 / 8x8dct=0 / cqm=0 / deadzone=21,11 / fast_pskip=1 / chroma_qp_offset=-2 / threads=22 / lookahead_threads=3 / sliced_threads=0 / nr=0 / decimate=1 / interlaced=0 / bluray_compat=0 / constrained_intra=0 / bframes=3 / b_pyramid=2 / b_adapt=1 / b_bias=0 / direct=1 / weightb=1 / open_gop=0 / weightp=2 / keyint=240 / keyint_min=1 / scenecut=40 / intra_refresh=0 / rc_lookahead=40 / rc=crf / mbtree=1 / crf=20.0 / qcomp=0.60 / qpmin=0 / qpmax=69 / qpstep=4 / ip_ratio=1.40 / aq=1:1.50
Дата кодирования : UTC 2018-12-22 15:35:18
Дата пометки : UTC 2018-12-24 16:04:44
Цветовой диапазон : Limited
Основные цвета : BT.709
Характеристики трансфера : BT.709
Коэффициенты матрицы : BT.709

Аудио #1
Идентификатор : 2
Формат : AAC
Формат/Информация : Advanced Audio Codec
Профиль формата : LC
Идентификатор кодека : 40
Продолжительность : 24 м.
Вид битрейта : Переменный
Битрейт : 192 Кбит/сек
Максимальный битрейт : 200 Кбит/сек
Каналы : 2 канала
Расположение каналов : Front: L R
Частота : 48,0 КГц
Метод сжатия : С потерями
Размер потока : 33,0 Мбайт (7%)
Заголовок : JAM & Nika Lenina
Язык : Russian
Дата кодирования : UTC 2018-12-24 16:04:36
Дата пометки : UTC 2018-12-24 16:04:44

Аудио #2
Идентификатор : 3
Формат : AAC
Формат/Информация : Advanced Audio Codec
Профиль формата : LC
Идентификатор кодека : 40
Продолжительность : 24 м.
Вид битрейта : Переменный
Битрейт : 204 Кбит/сек
Максимальный битрейт : 294 Кбит/сек
Каналы : 2 канала
Расположение каналов : Front: L R
Частота : 48,0 КГц
Метод сжатия : С потерями
Размер потока : 35,1 Мбайт (8%)
Язык : Japanese
Дата кодирования : UTC 2018-12-24 16:04:37
Дата пометки : UTC 2018-12-24 16:04:44

Общее
Полное имя : K:KinozalSword Art Online [Alicization JAM_CLUB]Sword Art Online Alicization - 13 (JAM & Nika Lenina ).ass
Размер файла : 43,2 Кбайт

Общее
Полное имя : K:KinozalSword Art Online [Alicization JAM_CLUB]Sword Art Online Alicization - 13 (JAM & Nika Lenina ).mp4
Формат : MPEG-4
Профиль формата : Base Media
Идентификатор кодека : isom
Размер файла : 407 Мбайт
Продолжительность : 24 м.
Режим общего битрейта : Переменный
Общий поток : 2373 Кбит/сек
Дата кодирования : UTC 2019-01-11 21:57:55
Дата пометки : UTC 2019-01-11 21:57:55
Программа кодирования : Yamb 2.1.0.0 [Yamb » Yet Another MP4Box UI]

Видео
Идентификатор : 1
Формат : AVC
Формат/Информация : Advanced Video Codec
Профиль формата : [email protected]
Параметр CABAC формата : Да
Параметр ReFrames формата : 4 кадра
Идентификатор кодека : avc1
Идентификатор кодека/Информация : Advanced Video Coding
Продолжительность : 24 м.
Продолжительность оригинала : 24 м.
Битрейт : 1984 Кбит/сек
Максимальный битрейт : 13,9 Мбит/сек
Ширина : 1280 пикселей
Высота : 720 пикселей
Соотношение сторон : 16:9
Режим частоты кадров : Переменный
Частота кадров : 23,976 кадра/сек
Минимальная частота кадров : 8,000 кадров/сек
Максимальная частота кадров : 24,390 кадра/сек
Цветовое пространство : YUV
Субдискретизация насыщенности : 4:2:0
Битовая глубина : 8 бит
Тип развёртки : Прогрессивная
Бит/(Пиксели*Кадры) : 0.090
Размер потока : 340 Мбайт (84%)
Размер потока оригинала : 340 Мбайт (84%)
Библиотека кодирования : x264 core 157 r2935 545de2f
Настройки программы : cabac=1 / ref=3 / deblock=1:0:0 / analyse=0x1:0x111 / me=hex / subme=7 / psy=1 / psy_rd=1.00:0.00 / mixed_ref=1 / me_range=16 / chroma_me=1 / trellis=1 / 8x8dct=0 / cqm=0 / deadzone=21,11 / fast_pskip=1 / chroma_qp_offset=-2 / threads=22 / lookahead_threads=3 / sliced_threads=0 / nr=0 / decimate=1 / interlaced=0 / bluray_compat=0 / constrained_intra=0 / bframes=3 / b_pyramid=2 / b_adapt=1 / b_bias=0 / direct=1 / weightb=1 / open_gop=0 / weightp=2 / keyint=240 / keyint_min=1 / scenecut=40 / intra_refresh=0 / rc_lookahead=40 / rc=crf / mbtree=1 / crf=20.0 / qcomp=0.60 / qpmin=0 / qpmax=69 / qpstep=4 / ip_ratio=1.40 / aq=1:1.50
Дата кодирования : UTC 2019-01-05 15:32:54
Дата пометки : UTC 2019-01-11 21:58:09
Цветовой диапазон : Limited
Основные цвета : BT.709
Характеристики трансфера : BT.709
Коэффициенты матрицы : BT.709

Аудио #1
Идентификатор : 2
Формат : AAC
Формат/Информация : Advanced Audio Codec
Профиль формата : LC
Идентификатор кодека : 40
Продолжительность : 24 м.
Вид битрейта : Переменный
Битрейт : 192 Кбит/сек
Максимальный битрейт : 202 Кбит/сек
Каналы : 2 канала
Расположение каналов : Front: L R
Частота : 48,0 КГц
Метод сжатия : С потерями
Размер потока : 33,0 Мбайт (8%)
Заголовок : JAM & Nika Lenina
Язык : Russian
Дата кодирования : UTC 2019-01-11 21:58:01
Дата пометки : UTC 2019-01-11 21:58:09

Аудио #2
Идентификатор : 3
Формат : AAC
Формат/Информация : Advanced Audio Codec
Профиль формата : LC
Идентификатор кодека : 40
Продолжительность : 24 м.
Вид битрейта : Переменный
Битрейт : 192 Кбит/сек
Максимальный битрейт : 283 Кбит/сек
Каналы : 2 канала
Расположение каналов : Front: L R
Частота : 48,0 КГц
Метод сжатия : С потерями
Размер потока : 32,5 Мбайт (8%)
Язык : Japanese
Дата кодирования : UTC 2019-01-11 21:58:02
Дата пометки : UTC 2019-01-11 21:58:09

Общее
Полное имя : K:KinozalSword Art Online [Alicization JAM_CLUB]Sword Art Online Alicization - 14 (JAM & Nika Lenina ).ass
Размер файла : 28,7 Кбайт

Общее
Полное имя : K:KinozalSword Art Online [Alicization JAM_CLUB]Sword Art Online Alicization - 14 (JAM & Nika Lenina ).mp4
Формат : MPEG-4
Профиль формата : Base Media
Идентификатор кодека : isom
Размер файла : 535 Мбайт
Продолжительность : 24 м.
Режим общего битрейта : Переменный
Общий поток : 3116 Кбит/сек
Дата кодирования : UTC 2019-01-13 23:07:33
Дата пометки : UTC 2019-01-13 23:07:33
Программа кодирования : Yamb 2.1.0.0 [Yamb » Yet Another MP4Box UI]

Видео
Идентификатор : 1
Формат : AVC
Формат/Информация : Advanced Video Codec
Профиль формата : [email protected]
Параметр CABAC формата : Да
Параметр ReFrames формата : 4 кадра
Идентификатор кодека : avc1
Идентификатор кодека/Информация : Advanced Video Coding
Продолжительность : 24 м.
Продолжительность оригинала : 24 м.
Битрейт : 2709 Кбит/сек
Максимальный битрейт : 19,2 Мбит/сек
Ширина : 1280 пикселей
Высота : 720 пикселей
Соотношение сторон : 16:9
Режим частоты кадров : Переменный
Частота кадров : 23,976 кадра/сек
Минимальная частота кадров : 8,000 кадров/сек
Максимальная частота кадров : 24,390 кадра/сек
Цветовое пространство : YUV
Субдискретизация насыщенности : 4:2:0
Битовая глубина : 8 бит
Тип развёртки : Прогрессивная
Бит/(Пиксели*Кадры) : 0.123
Размер потока : 465 Мбайт (87%)
Размер потока оригинала : 465 Мбайт (87%)
Библиотека кодирования : x264 core 157 r2935 545de2f
Настройки программы : cabac=1 / ref=3 / deblock=1:0:0 / analyse=0x1:0x111 / me=hex / subme=7 / psy=1 / psy_rd=1.00:0.00 / mixed_ref=1 / me_range=16 / chroma_me=1 / trellis=1 / 8x8dct=0 / cqm=0 / deadzone=21,11 / fast_pskip=1 / chroma_qp_offset=-2 / threads=22 / lookahead_threads=3 / sliced_threads=0 / nr=0 / decimate=1 / interlaced=0 / bluray_compat=0 / constrained_intra=0 / bframes=3 / b_pyramid=2 / b_adapt=1 / b_bias=0 / direct=1 / weightb=1 / open_gop=0 / weightp=2 / keyint=240 / keyint_min=1 / scenecut=40 / intra_refresh=0 / rc_lookahead=40 / rc=crf / mbtree=1 / crf=20.0 / qcomp=0.60 / qpmin=0 / qpmax=69 / qpstep=4 / ip_ratio=1.40 / aq=1:1.50
Дата кодирования : UTC 2019-01-12 15:35:38
Дата пометки : UTC 2019-01-13 23:07:50
Цветовой диапазон : Limited
Основные цвета : BT.709
Характеристики трансфера : BT.709
Коэффициенты матрицы : BT.709

Аудио #1
Идентификатор : 2
Формат : AAC
Формат/Информация : Advanced Audio Codec
Профиль формата : LC
Идентификатор кодека : 40
Продолжительность : 24 м.
Вид битрейта : Переменный
Битрейт : 192 Кбит/сек
Максимальный битрейт : 202 Кбит/сек
Каналы : 2 канала
Расположение каналов : Front: L R
Частота : 48,0 КГц
Метод сжатия : С потерями
Размер потока : 33,0 Мбайт (6%)
Заголовок : JAM & Nika Lenina
Язык : Russian
Дата кодирования : UTC 2019-01-13 23:07:42
Дата пометки : UTC 2019-01-13 23:07:50

Аудио #2
Идентификатор : 3
Формат : AAC
Формат/Информация : Advanced Audio Codec
Профиль формата : LC
Идентификатор кодека : 40
Продолжительность : 24 м.
Вид битрейта : Переменный
Битрейт : 206 Кбит/сек
Максимальный битрейт : 273 Кбит/сек
Каналы : 2 канала
Расположение каналов : Front: L R
Частота : 48,0 КГц
Метод сжатия : С потерями
Размер потока : 35,4 Мбайт (7%)
Язык : Japanese
Дата кодирования : UTC 2019-01-13 23:07:43
Дата пометки : UTC 2019-01-13 23:07:50

Общее
Полное имя : K:KinozalSword Art Online [Alicization JAM_CLUB]Sword Art Online Alicization - 15 (JAM & Nika Lenina ).ass
Размер файла : 30,4 Кбайт

Общее
Полное имя : K:KinozalSword Art Online [Alicization JAM_CLUB]Sword Art Online Alicization - 15 (JAM & Nika Lenina ).mp4
Формат : MPEG-4
Профиль формата : Base Media
Идентификатор кодека : isom
Размер файла : 491 Мбайт
Продолжительность : 24 м.
Режим общего битрейта : Переменный
Общий поток : 2858 Кбит/сек
Дата кодирования : UTC 2019-01-21 18:39:20
Дата пометки : UTC 2019-01-21 18:39:20
Программа кодирования : Yamb 2.1.0.0 [Yamb » Yet Another MP4Box UI]

Видео
Идентификатор : 1
Формат : AVC
Формат/Информация : Advanced Video Codec
Профиль формата : [email protected]
Параметр CABAC формата : Да
Параметр ReFrames формата : 4 кадра
Идентификатор кодека : avc1
Идентификатор кодека/Информация : Advanced Video Coding
Продолжительность : 24 м.
Продолжительность оригинала : 24 м.
Битрейт : 2445 Кбит/сек
Максимальный битрейт : 19,4 Мбит/сек
Ширина : 1280 пикселей
Высота : 720 пикселей
Соотношение сторон : 16:9
Режим частоты кадров : Переменный
Частота кадров : 23,976 кадра/сек
Минимальная частота кадров : 8,000 кадров/сек
Максимальная частота кадров : 24,390 кадра/сек
Цветовое пространство : YUV
Субдискретизация насыщенности : 4:2:0
Битовая глубина : 8 бит
Тип развёртки : Прогрессивная
Бит/(Пиксели*Кадры) : 0.111
Размер потока : 420 Мбайт (86%)
Размер потока оригинала : 420 Мбайт (86%)
Библиотека кодирования : x264 core 157 r2935 545de2f
Настройки программы : cabac=1 / ref=3 / deblock=1:0:0 / analyse=0x1:0x111 / me=hex / subme=7 / psy=1 / psy_rd=1.00:0.00 / mixed_ref=1 / me_range=16 / chroma_me=1 / trellis=1 / 8x8dct=0 / cqm=0 / deadzone=21,11 / fast_pskip=1 / chroma_qp_offset=-2 / threads=22 / lookahead_threads=3 / sliced_threads=0 / nr=0 / decimate=1 / interlaced=0 / bluray_compat=0 / constrained_intra=0 / bframes=3 / b_pyramid=2 / b_adapt=1 / b_bias=0 / direct=1 / weightb=1 / open_gop=0 / weightp=2 / keyint=240 / keyint_min=1 / scenecut=40 / intra_refresh=0 / rc_lookahead=40 / rc=crf / mbtree=1 / crf=20.0 / qcomp=0.60 / qpmin=0 / qpmax=69 / qpstep=4 / ip_ratio=1.40 / aq=1:1.50
Дата кодирования : UTC 2019-01-19 15:33:56
Дата пометки : UTC 2019-01-21 18:39:35
Цветовой диапазон : Limited
Основные цвета : BT.709
Характеристики трансфера : BT.709
Коэффициенты матрицы : BT.709

Аудио #1
Идентификатор : 2
Формат : AAC
Формат/Информация : Advanced Audio Codec
Профиль формата : LC
Идентификатор кодека : 40
Продолжительность : 24 м.
Вид битрейта : Переменный
Битрейт : 192 Кбит/сек
Максимальный битрейт : 198 Кбит/сек
Каналы : 2 канала
Расположение каналов : Front: L R
Частота : 48,0 КГц
Метод сжатия : С потерями
Размер потока : 33,0 Мбайт (7%)
Заголовок : JAM & Nika Lenina
Язык : Russian
Дата кодирования : UTC 2019-01-21 18:39:27
Дата пометки : UTC 2019-01-21 18:39:35

Аудио #2
Идентификатор : 3
Формат : AAC
Формат/Информация : Advanced Audio Codec
Профиль формата : LC
Идентификатор кодека : 40
Продолжительность : 24 м.
Вид битрейта : Переменный
Битрейт : 213 Кбит/сек
Максимальный битрейт : 269 Кбит/сек
Каналы : 2 канала
Расположение каналов : Front: L R
Частота : 48,0 КГц
Метод сжатия : С потерями
Размер потока : 36,5 Мбайт (7%)
Язык : Japanese
Дата кодирования : UTC 2019-01-21 18:39:28
Дата пометки : UTC 2019-01-21 18:39:35
Список серий
01. Подмирьe
02. Древо Зла
03. Граничный хребет
04. Отъезд
05. Океанская черепаха
06. Проект Алисизация
07. Академия мастеров меча
08. Гордость мечника
09. Честь дворянина
10. Индекс Запретов
11. Центральный собор
12. Мудрец Великой библиотеки
13. Правитель и посредник
14. Красный рыцарь
15. Безжалостный рыцарь
16. Рыцарь душистой оливы
17. Перемирие
18. Легендарный герой
19. Печать в правом глазу
Скриншоты
 

Вложения

  • 26,6 KB Просмотры: 0
    Личеров 0
    Сидеров 0
    Файлов 38
    Объем 8,8 GB
Ваш e-mail не будет опубликован. Он потребуется для подтверждения Вашего поста.
Оформление текста Нажмите «Ввод», чтобы отправить ответ.