За сегодня опубликовано 10 новых материалов.
Инструкция новичку Путеводитель по форуму Прокси для Telegram Показать подсказки , это бомба!

Скачать Мастера меча онлайн: Порядковый ранг / Gekijouban Sword Art Online: Ordinal Scale (2017) BDRip от Stranik 2.0 | KANSAI Studio бесплатно через торрент

  • Получай до 480 рублей за каждого приглашенного пользователя!
    представляем Вам очередное расширение партнерской программы, подробности описаны тут -> ссылка
  • 90% материалов доступно к скачиванию после простой регистрации!
    Если же ты хочешь скачивать материалы без требования оставлять отзывы то получи группу "Новичок", 10 способов повышения описаны тут -> ссылка
  • К сожалению количество битых ссылок растет и мы уже не можем их оперативно восстанавливать поэтому просим помощи у каждого нашего пользователя.
    С сегодняшнего дня, за каждую восстановленную ссылку мы заплатим Вам.
    Подробнее тут -> ссылка
  • Перенесем твои заслуги с другого ресурса!
    Мы понимаем как сложно прокачивать аккаунты на форумах, вроде раскачал аккаунт, а тут появляется ресурс в 100 раз круче но тоже с системой прокачки и снова качать аккаунт...
    Предлагаем вам перенести Ваши заслуги на другом подобном ресурсе к нам.
    Подробности описаны тут -> ссылка
  • Вы можете получать по 2.5% с каждой покупки и продажи на маркете! Подробности в теме Партнёрская программа

Torrent_Bot

Торрент-Бот
Бот форума
4 Окт 2016
125
32
20
Информация о фильме

Название : Мастера меча онлайн: Порядковый ранг
Оригинальное название : Gekijouban Sword Art Online: Ordinal Scale / 劇場版 ソードアート・オンライン -オーディナル・スケール-
Год выхода : 2017
Жанр :Приключения, фантастика
Режиссер : Ито Томохико


world-art | MyAnimeList | Офиц. сайт


Описание : Продолжение аниме-сериала «Мастера Меча Онлайн II».
2026 год, на смену «Амусферы» приходит «Augma» — устройство расширенной реальности, которая вместо функции «полного погружения», использует дополненную реальность, что делает процесс использования устройства безопаснее и удобнее. Благодаря этому новое устройство расширенной реальности получило большую популярность, а вместе с ней и «Ordinal Scale» — ARMMORPG, разработанная специально для «Augma», особенностью которой является OS — игровая функция, при которой все игроки получают ранг, основанный на их порядковом номере. Как и ожидалось, Кирито с друзьями начинают играть в «Ordinal Scale», но вскоре они узнают, что «Порядковый ранг» — это вовсе не веселье и игры...


Страна : Япония
Производство : A-1 Pictures Inc.
Продолжительность : 120 мин.
Перевод: Любительский (многоголосый, закадровый)

Перевод:

Cубтитры:
Перевод: Flerion

Озвучка:
- многоголосая закадровая: KANSAI Studio - Sample


Автор рипа и релиза:Страник 2.0


Файл
Формат видео : AVI
Качество : BDRip (исходник: BDRemux, спасибо antiBILLotic)
Тип релиза: Полухардсаб (Надписи [Rus])

Видео: XviD, 720x400 (16:9), 1786 Кбит/с, 23.976 fps, 8bit
Аудио 1: Русский, AC3, 192 Кбит/с, 48.0 Hz, 2 ch (в составе контейнера)
Аудио 2: Японский, AC3, 384 Кбит/с, 48.0 Hz, 6 ch (в составе контейнера)
Субтитры (srt): Русские, Английские [BD] (внешним файлом)


Скриншоты
27d05acbaffa8584b1d447732716d017.jpeg31d9cff897070726b4e6aeea5e4aad02.jpeg7c12c6bfd2a594aeb85e069b61d0ae36.jpeg

af302ba84d4154dc75525b3cc4fa325e.jpege359545af9f6c4e3e64b59d55de487e8.jpeg4552a0f18012cd08a22745c24d4f0958.jpeg

15d0c5f9206ed68538e2091bbea6a0d0.jpeg7716af04d8aeaf743ec4aa117423ebb9.jpegee4009dbc4b7206e2aad3dd9f10cbe6f.jpeg
MediaInfo
General
Complete name : E:/Torrent_2/Gekijouban Sword Art Online . Ordinal Scale (2017, XviD BDRip, RUS JAP+SUB) [Stranik 2.0]/Gekijouban Sword Art Online . Ordinal Scale (2017, XviD BDRip, RUS JAP+SUB) [Stranik 2.0].avi
Format : AVI
Format/Info : Audio Video Interleave
Format profile : OpenDML
File size : 2.00 GiB
Duration : 2h 0mn
Overall bit rate : 2 380 Kbps
Writing application : VirtualDubMod 1.5.10.3 (build 2550/release)
Writing library : VirtualDubMod build 2550/release

Video #0
ID : 0
Format : MPEG-4 Visual
Format profile : Advanced [email protected]
Format settings, BVOP : 2
Format settings, QPel : No
Format settings, GMC : No warppoints
Format settings, Matrix : Custom
Codec ID : XVID
Codec ID/Hint : XviD
Duration : 2h 0mn
Bit rate : 1 786 Kbps
Width : 720 pixels
Height : 400 pixels
Display aspect ratio : 16:9
Frame rate : 23.976 fps
Color space : YUV
Chroma subsampling : 4:2:0
Bit depth : 8 bits
Scan type : Progressive
Compression mode : Lossy
Bits/(Pixel*Frame) : 0.259
Stream size : 1.50 GiB (75%)
Writing library : XviD 67

Audio #1
ID : 1
Format : AC-3
Format/Info : Audio Coding 3
Mode extension : CM (complete main)
Format settings, Endianness : Big
Codec ID : 2000
Duration : 2h 0mn
Bit rate mode : Constant
Bit rate : 192 Kbps
Channel(s) : 2 channels
Channel positions : Front: L R
Sampling rate : 48.0 KHz
Bit depth : 16 bits
Compression mode : Lossy
Stream size : 165 MiB (8%)
Alignment : Split accross interleaves
Interleave, duration : 42 ms (1.00 video frame)
Interleave, preload duration : 500 ms

Audio #2
ID : 2
Format : AC-3
Format/Info : Audio Coding 3
Mode extension : CM (complete main)
Format settings, Endianness : Big
Codec ID : 2000
Duration : 2h 0mn
Bit rate mode : Constant
Bit rate : 384 Kbps
Channel(s) : 6 channels
Channel positions : Front: L C R, Side: L R, LFE
Sampling rate : 48.0 KHz
Bit depth : 16 bits
Compression mode : Lossy
Stream size : 330 MiB (16%)
Alignment : Split accross interleaves
Interleave, duration : 42 ms (1.00 video frame)
Interleave, preload duration : 500 ms

Моя максимальная скорость отдачи 100КБ/c
Раздаю с 7:00 до 00:00 по Москве
 

Вложения

Ваш e-mail не будет опубликован. Он потребуется для подтверждения Вашего поста.
Оформление текста Нажмите «Ввод», чтобы отправить ответ.