За последнюю неделю опубликовано 72 новых материалов.
Инструкция новичку Путеводитель по форуму Прокси для Telegram Показать подсказки , это бомба!

Скачать Мастера меча онлайн: Алисизация / Sword Art Online: Alicization [01-14 из 24] (2018) WEBRip от Stranik 2.0 | StudioBand бесплатно через торрент

  • Поучаствуй (в качестве покупателя) в любых пяти совместных покупках (кроме завершённых и "Моментальных") и получи группу "Новичок" навсегда -> ссылка на раздел
  • Получай до 480 рублей за каждого приглашенного пользователя!
    представляем Вам очередное расширение партнерской программы, подробности описаны тут -> ссылка
  • 90% материалов доступно к скачиванию после простой регистрации!
    Если же ты хочешь скачивать материалы без требования оставлять отзывы то получи группу "Новичок", 10 способов повышения описаны тут -> ссылка
  • К сожалению количество битых ссылок растет и мы уже не можем их оперативно восстанавливать поэтому просим помощи у каждого нашего пользователя.
    С сегодняшнего дня, за каждую восстановленную ссылку мы заплатим Вам.
    Подробнее тут -> ссылка
  • Перенесем твои заслуги с другого ресурса!
    Мы понимаем как сложно прокачивать аккаунты на форумах, вроде раскачал аккаунт, а тут появляется ресурс в 100 раз круче но тоже с системой прокачки и снова качать аккаунт...
    Предлагаем вам перенести Ваши заслуги на другом подобном ресурсе к нам.
    Подробности описаны тут -> ссылка
  • Вы можете получать по 2.5% с каждой покупки и продажи на маркете! Подробности в теме Партнёрская программа

Torrent_Bot

Торрент-Бот
Бот форума
4 Окт 2016
125
70
20



Информация о фильме

Название : Мастера меча онлайн: Алисизация
Оригинальное название : Sword Art Online: Alicization / ソードアート・オンライン アリシゼーション
Год выхода : 2018
Тип: TV
Жанр :Приключения, фантастика, романтика, драма
Режиссер : Манабу Оно


Описание : Кирито просыпается в огромном фантастическом виртуальном мире. Потеряв память, он начинает искать подсказки и встречает молодого парня Юджио у подножия черного дерева. И хотя Юджио — персонаж из виртуального мира (NPC), у него есть способность чувствовать и выражать человеческие чувства. Пытаясь найти способ выйти из системы, Кирито вдруг вспоминает, как бежал с Юджио на эту же самую гору, где они находятся. Но как это вообще возможно? Это воспоминание не должно было и существовать. Кроме того, в этом воспоминании была молодая девушка с длинными светлыми волосами, имя которой — Алиса. Что бы ни случилось, это имя нельзя забыть.


world-art | MyAnimeList | Офиц. Сайт


Страна : Япония
Производство : A-1 Pictures
Продолжительность : Эп. 01 ~00:47:00 минут, ? эпизодов по ~00:24:00 минуты
Перевод: Профессиональный (полное дублирование)

Перевод:

Русские субтитры:WAKANIM (распознанный хардсаб)
Переводчик: Алексей Соловьёв
Редактор: Алла Локтионова

Озвучка:ТО Студийная БандаWAKANIM
полное дублирование: Влад Токарев, Анна Мосолова, Татьяна Борзова, Ирина Зиновкина, Ирина Евтягина, Полина Ртищева, Александр Скиданов, Александр Русаков, Иван Породнов
По переводу: Алексей Соловьёв[Истари Комикс], по заказу WAKANIM




Автор рипа: Страник 2.0


Файл
Качество: WEBRip (исходник: WEB-DL, спасибо jensen123321)
Тип релиза: Полухардсаб (Надписи)
Формат видео: AVI
Наличие линковки: Нет

Видео: XviD, 720x400 (16:9), 1650 Кбит/с, 23.976 fps, 8bit
Аудио 1: Русский, AC3, 192 Кбит/с, 48.0 Hz, 2 ch (в составе контейнера)
Аудио 2: Японский, AC3, 128 Кбит/с, 48.0 Hz, 2 ch (в составе контейнера)
Субтитры (srt): Русские (внешними файлами)

Список эпизодов
01. Андерворлд / Underworld
02. Дьявольское древо / The Demon Tree
03. Краевой хребет / The End Mountains
04. В путь / Departure
05. Морская черепаха / Ocean Turtle
06. Проект «Алисизация» / Project Alicization
07. Академия мастеров меча / Swordcraft Academy
08. Гордость мечника / Swordsman`s Pride
09. Долг знати / Nobleman`s Responsibilities
10. Кодекс Запретов / Taboo Index
11. Центральный собор / Central Cathedral
12. Мудрец из библиотеки / The Sage of the Library
13. Владычица и регулятор / Ruler and Mediator
14. Рыцарь Алого Пламени / The Crimson Knight
Скриншоты






MediaInfo
General
Complete name : E:/Torrent_2/Sword Art Online - Alicization (2018, XviD WEBRip, RUS JAP+SUB) [Stranik 2.0]/Sword Art Online - Alicization - 01 (WEBRip) [WAKANIM].avi
Format : AVI
Format/Info : Audio Video Interleave
File size : 676 MiB
Duration : 47mn 40s
Overall bit rate : 1 984 Kbps
Writing application : VirtualDubMod 1.5.10.3 (build 2550/release)
Writing library : VirtualDubMod build 2550/release

Video #0
ID : 0
Format : MPEG-4 Visual
Format profile : Advanced [email protected]
Format settings, BVOP : 2
Format settings, QPel : No
Format settings, GMC : No warppoints
Format settings, Matrix : Custom
Codec ID : XVID
Codec ID/Hint : XviD
Duration : 47mn 40s
Bit rate : 1 650 Kbps
Width : 720 pixels
Height : 400 pixels
Display aspect ratio : 16:9
Frame rate : 23.976 fps
Color space : YUV
Chroma subsampling : 4:2:0
Bit depth : 8 bits
Scan type : Progressive
Compression mode : Lossy
Bits/(Pixel*Frame) : 0.239
Stream size : 562 MiB (83%)
Writing library : XviD 67

Audio #1
ID : 1
Format : AC-3
Format/Info : Audio Coding 3
Mode extension : CM (complete main)
Format settings, Endianness : Big
Codec ID : 2000
Duration : 47mn 40s
Bit rate mode : Constant
Bit rate : 192 Kbps
Channel(s) : 2 channels
Channel positions : Front: L R
Sampling rate : 48.0 KHz
Bit depth : 16 bits
Compression mode : Lossy
Stream size : 65.5 MiB (10%)
Alignment : Split accross interleaves
Interleave, duration : 42 ms (1.00 video frame)
Interleave, preload duration : 500 ms

Audio #2
ID : 2
Format : AC-3
Format/Info : Audio Coding 3
Mode extension : CM (complete main)
Format settings, Endianness : Big
Codec ID : 2000
Duration : 47mn 40s
Bit rate mode : Constant
Bit rate : 128 Kbps
Channel(s) : 2 channels
Channel positions : Front: L R
Sampling rate : 48.0 KHz
Bit depth : 16 bits
Compression mode : Lossy
Stream size : 43.6 MiB (6%)
Alignment : Split accross interleaves
Interleave, duration : 42 ms (1.00 video frame)
Interleave, preload duration : 500 ms




 

Вложения

  • 16,3 KB Просмотры: 1
    Личеров 0
    Сидеров 0
    Файлов 28
    Объем 4,9 GB
Ваш e-mail не будет опубликован. Он потребуется для подтверждения Вашего поста.
Оформление текста Нажмите «Ввод», чтобы отправить ответ.