За сегодня опубликовано 0 новых материалов.
Инструкция новичку Путеводитель по форуму Прокси для Telegram Показать подсказки , это бомба!

Скачать Лифт / De lift (1983) BDRip 1080p | P бесплатно через торрент

  • Получай до 480 рублей за каждого приглашенного пользователя!
    представляем Вам очередное расширение партнерской программы, подробности описаны тут -> ссылка
  • 90% материалов доступно к скачиванию после простой регистрации!
    Если же ты хочешь скачивать материалы без требования оставлять отзывы то получи группу "Новичок", 10 способов повышения описаны тут -> ссылка
  • К сожалению количество битых ссылок растет и мы уже не можем их оперативно восстанавливать поэтому просим помощи у каждого нашего пользователя.
    С сегодняшнего дня, за каждую восстановленную ссылку мы заплатим Вам.
    Подробнее тут -> ссылка
  • Перенесем твои заслуги с другого ресурса!
    Мы понимаем как сложно прокачивать аккаунты на форумах, вроде раскачал аккаунт, а тут появляется ресурс в 100 раз круче но тоже с системой прокачки и снова качать аккаунт...
    Предлагаем вам перенести Ваши заслуги на другом подобном ресурсе к нам.
    Подробности описаны тут -> ссылка
  • Вы можете получать по 2.5% с каждой покупки и продажи на маркете! Подробности в теме Партнёрская программа
Если Вы не хотите скачивать, Вы всегда можете посмотреть онлайн, просто нажмите кнопку ниже :

Открыть плеер

Torrent_Bot

Торрент-Бот
Бот форума
4 Окт 2016
125
32
20



Информация о фильме
Название: Лифт
Оригинальное название: De lift
Год выхода: 1983
Жанр: ужасы
Режиссер: Дик Мас
В ролях: Хуб Стапель, Виллеке ван Аммельрой, Йосина ван Далсум, Лиз Снойинк, Виске Стерринга, Хюйб Броос, Питер Лутс, Йохан Хобо, Дик Схеффер, Матиас Маат

О фильме: Несколько несчастных случаев, происшедших в лифте небоскреба компании «Икарус», подтолкнули вызванного мастера — ремонтника Феликса к открытию, что лифт на самом деле есть автономное существо, благодаря встроенному микропроцессору. Вместе с прибывшей журналисткой он должен принять сражение с вышедшим из-под контроля механизмом и выдержать немало испытаний, чтобы отключить его…



Страна: Нидерланды
Продолжительность: 01:38:44
Перевод: Профессиональный (многоголосый закадровый) ТВ3
Субтитры: английские
Оригинальная аудиодорожка: голландский

Файл
Качество: BDRip 1080p
Видео: AVC, 1792x1080 (1.659), 23.976 fps, 14.9 Mbps (0.321 bit/pixel)
Аудио 1: AC-3, 48.0 KHz, 2 ch, 192 Kbps, CBR - русский
Аудио 2: DTS, 48.0 KHz, 6 ch, 1 510 Kbps, CBR - голландский
Аудио 3: DTS, 48.0 KHz, 6 ch, 1 510 Kbps, CBR - английский

Скриншоты
MediaInfo
Общее
Уникальный идентификатор : 239064048858308318995686622518849274549 (0xB3DA0F9FCF866963A9EC8FFC6B3782B5)
Полное имя : The.Lift.1983.1080p.BluRay.x264.DTS-FGT.mkv
Формат : Matroska
Версия формата : Version 2
Размер файла : 12,8 Гбайт
Продолжительность : 1 ч. 38 м.
Общий поток : 18,5 Мбит/сек
Название фильма : Лифт / De Lift (1983)
Дата кодирования : UTC 2018-12-03 17:12:16
Программа кодирования : mkvmerge v8.2.0 ('World of Adventure') 64bit
Библиотека кодирования : libebml v1.3.1 + libmatroska v1.4.2
Обложка : Yes
Attachments : small_cover.jpg / small_cover_land.jpg / cover.jpg / cover_land.jpg

Видео
Идентификатор : 1
Формат : AVC
Формат/Информация : Advanced Video Codec
Профиль формата : [email protected]
Настройки формата : CABAC / 4 Ref Frames
Параметр CABAC формата : Да
Параметр RefFrames формата : 4 кадра
Идентификатор кодека : V_MPEG4/ISO/AVC
Продолжительность : 1 ч. 38 м.
Битрейт : 14,9 Мбит/сек
Ширина : 1792 пикселя
Высота : 1080 пикселей
Соотношение сторон : 5:3
Режим частоты кадров : Постоянный
Частота кадров : 23,976 (24000/1001) кадра/сек
Цветовое пространство : YUV
Субдискретизация насыщенности : 4:2:0
Битовая глубина : 8 бит
Тип развёртки : Прогрессивная
Бит/(Пиксели*Кадры) : 0.321
Размер потока : 10,3 Гбайт (81%)
Библиотека кодирования : x264 core 148 r2795M aaa9aa8
Настройки программы : cabac=1 / ref=4 / deblock=1:-2:-2 / analyse=0x3:0x113 / me=umh / subme=9 / psy=1 / psy_rd=1.00:0.15 / mixed_ref=1 / me_range=16 / chroma_me=1 / trellis=2 / 8x8dct=1 / cqm=0 / deadzone=21,11 / fast_pskip=1 / chroma_qp_offset=-3 / threads=24 / lookahead_threads=3 / sliced_threads=0 / nr=0 / decimate=1 / interlaced=0 / bluray_compat=0 / constrained_intra=0 / bframes=3 / b_pyramid=2 / b_adapt=2 / b_bias=0 / direct=3 / weightb=1 / open_gop=0 / weightp=2 / keyint=250 / keyint_min=23 / scenecut=40 / intra_refresh=0 / rc_lookahead=50 / rc=crf / mbtree=1 / crf=22.0 / qcomp=0.60 / qpmin=0 / qpmax=69 / qpstep=4 / ip_ratio=1.40 / aq=1:1.00
Язык : Dutch
Default : Да
Forced : Нет

Аудио #1
Идентификатор : 2
Формат : AC-3
Формат/Информация : Audio Coding 3
Коммерческое название : Dolby Digital
Идентификатор кодека : A_AC3
Продолжительность : 1 ч. 38 м.
Вид битрейта : Постоянный
Битрейт : 192 Кбит/сек
Каналы : 2 канала
Channel layout : L R
Частота : 48,0 КГц
Частота кадров : 31,250 кадров/сек (1536 SPF)
Битовая глубина : 16 бит
Метод сжатия : С потерями
Размер потока : 136 Мбайт (1%)
Заголовок : Профессиональный (многоголосый, закадровый) ТВ3
Язык : Russian
ServiceKind: Complete Main
Default : Да
Forced : Нет

Аудио #2
Идентификатор : 3
Формат : DTS
Формат/Информация : Digital Theater Systems
Идентификатор кодека : A_DTS
Продолжительность : 1 ч. 38 м.
Вид битрейта : Постоянный
Битрейт : 1509 Кбит/сек
Каналы : 6 каналов
Channel layout : C L R Ls Rs LFE
Частота : 48,0 КГц
Частота кадров : 93,750 кадра/сек (512 SPF)
Битовая глубина : 24 бит
Метод сжатия : С потерями
Размер потока : 1,04 Гбайт (8%)
Язык : Dutch
Default : Нет
Forced : Нет

Аудио #3
Идентификатор : 4
Формат : DTS
Формат/Информация : Digital Theater Systems
Идентификатор кодека : A_DTS
Продолжительность : 1 ч. 38 м.
Вид битрейта : Постоянный
Битрейт : 1509 Кбит/сек
Каналы : 2 канала
Channel layout : Lt Rt
Частота : 48,0 КГц
Частота кадров : 93,750 кадра/сек (512 SPF)
Битовая глубина : 24 бит
Метод сжатия : С потерями
Размер потока : 1,04 Гбайт (8%)
Язык : English
Default : Нет
Forced : Нет

Текст #1
Идентификатор : 5
Формат : UTF-8
Идентификатор кодека : S_TEXT/UTF8
Идентификатор кодека/Информация : UTF-8 Plain Text
Заголовок : English
Язык : English
Default : Нет
Forced : Нет

Текст #2
Идентификатор : 6
Формат : UTF-8
Идентификатор кодека : S_TEXT/UTF8
Идентификатор кодека/Информация : UTF-8 Plain Text
Заголовок : English dubtitles
Язык : English
Default : Нет
Forced : Нет

Текст #3
Идентификатор : 7
Формат : UTF-8
Идентификатор кодека : S_TEXT/UTF8
Идентификатор кодека/Информация : UTF-8 Plain Text
Заголовок : English dubtitles SDH
Язык : English
Default : Нет
Forced : Нет

Меню
00:00:00.000 : en:00:00:00.000
00:03:42.222 : en:00:03:42.222
00:08:15.745 : en:00:08:15.745
00:11:08.960 : en:00:11:08.960
00:19:23.079 : en:00:19:23.079
00:22:32.518 : en:00:22:32.518
00:27:06.834 : en:00:27:06.834
00:33:05.692 : en:00:33:05.692
00:38:41.486 : en:00:38:41.486
00:43:09.003 : en:00:43:09.003
00:46:45.678 : en:00:46:45.678
00:50:23.395 : en:00:50:23.395
01:01:20.343 : en:01:01:20.343
01:05:59.330 : en:01:05:59.330
01:09:18.780 : en:01:09:18.780
01:17:45.911 : en:01:17:45.911
01:21:15.704 : en:01:21:15.704
01:25:38.216 : en:01:25:38.216
01:31:03.541 : en:01:31:03.541
01:36:56.769 : en:01:36:56.769
 

Вложения

  • 64,7 KB Просмотры: 0
    Личеров 0
    Сидеров 0
    Файлов 1
    Объем 12,8 GB
Ваш e-mail не будет опубликован. Он потребуется для подтверждения Вашего поста.
Оформление текста Нажмите «Ввод», чтобы отправить ответ.