За сегодня опубликовано 0 новых материалов.
Инструкция новичку Путеводитель по форуму Прокси для Telegram Показать подсказки , это бомба!

Скачать Лидия Клемент - Золотая коллекция Ретро (2005) APE by гаврила бесплатно через торрент

  • Получай до 480 рублей за каждого приглашенного пользователя!
    представляем Вам очередное расширение партнерской программы, подробности описаны тут -> ссылка
  • 90% материалов доступно к скачиванию после простой регистрации!
    Если же ты хочешь скачивать материалы без требования оставлять отзывы то получи группу "Новичок", 10 способов повышения описаны тут -> ссылка
  • К сожалению количество битых ссылок растет и мы уже не можем их оперативно восстанавливать поэтому просим помощи у каждого нашего пользователя.
    С сегодняшнего дня, за каждую восстановленную ссылку мы заплатим Вам.
    Подробнее тут -> ссылка
  • Перенесем твои заслуги с другого ресурса!
    Мы понимаем как сложно прокачивать аккаунты на форумах, вроде раскачал аккаунт, а тут появляется ресурс в 100 раз круче но тоже с системой прокачки и снова качать аккаунт...
    Предлагаем вам перенести Ваши заслуги на другом подобном ресурсе к нам.
    Подробности описаны тут -> ссылка
  • Вы можете получать по 2.5% с каждой покупки и продажи на маркете! Подробности в теме Партнёрская программа

Torrent_Bot

Торрент-Бот
Бот форума
4 Окт 2016
125
32
20
Трэклист:
1. Карелия (А.Колкер - К.Рыжов)
2. Песенка почтальона (А.Колкер - Л.Норкин)
3. Здравствуй (А.Петров - С.Фогельсон)
4. Звёзды в кондукторской сумке (А.Петров - Л.Куклин)
5. Дождь на Неве (В.Шеповалов - Б.Гершт,К.Григорьев)
6. Если б не было в мире влюблённых (А.Колкер - Л.Норкин)
7. Ходишь ты мимо (Г.Портнов - Ю.Принцев)
8. Я счастье несу (Г.Портнов - Ю.Принцев)
9. Слишком нежная песенка (Ю.Саульский - Д.Иванов)
10. Мы приходим в новый дом (Ю.Саульский - М.Розовский,Г.Панков)
11. Когда вам двадцать лет (В.Соловьёв-Седой - М.Матусовский)
12. На кургане (А.Петров - Ю.Друнина)

Жанр:Retro
Год выпуска диска: 2005
Производитель диска: Россия
Аудио кодек: APE
Тип рипа: image+.cue
Битрейт аудио: lossless
Продолжительность: 37м 47с

Exact Audio Copy V0.99 prebeta 4 from 23. January 2008
Отчёт EAC об извлечении, выполненном 28. августа 2008, 17:18
Лидия Клемент / Золотая коллекция ретро
Дисковод: Optiarc DVD RW AD-5170A Adapter: 0 ID: 0
Режим чтения : Достоверность
Использование точного потока : Да
Отключение кэша аудио : Да
Использование указателей C2 : Нет
Коррекция смещения при чтении : 48
Способность читать области Lead-in и Lead-out : Нет
Заполнение пропущенных сэмплов тишиной : Да
Удаление блоков с тишиной в начале и конце : Нет
При вычислениях CRC использовались нулевые сэмплы : Да
Интерфейс : Встроенный Win32-интерфейс для Win NT/2000
Выходной формат : Внутренние WAV-операции
Формат сэмплов : 44.100 Гц; 16 бит; стерео
TOC извлечённого CD
Трек | Старт | Длительность | Начальный сектор | Конечный сектор
---------------------------------------------------------------------
1 | 0:00.00 | 3:03.53 | 0 | 13777
2 | 3:03.53 | 3:32.30 | 13778 | 29707
3 | 6:36.08 | 3:58.31 | 29708 | 47588
4 | 10:34.39 | 4:58.45 | 47589 | 69983
5 | 15:33.09 | 3:10.26 | 69984 | 84259
6 | 18:43.35 | 2:18.02 | 84260 | 94611
7 | 21:01.37 | 1:42.49 | 94612 | 102310
8 | 22:44.11 | 2:45.48 | 102311 | 114733
9 | 25:29.59 | 2:56.18 | 114734 | 127951
10 | 28:26.02 | 2:49.50 | 127952 | 140676
11 | 31:15.52 | 2:37.61 | 140677 | 152512
12 | 33:53.38 | 3:51.38 | 152513 | 169875
Характеристики диапазона извлечения и сообщения об ошибках
Выбранный диапазон
Имя файла D:AudioЛ.КлементЛидия Клемент - Золотая коллекция ретро.wav
Пиковый уровень 50.7 %
Качество диапазона 99.9 %
CRC копии 2937C299
Копирование... OK
Ошибок не произошло
Конец отчёта
 

Вложения

  • 13,2 KB Просмотры: 0
    Личеров 0
    Сидеров 0
    Файлов 11
    Объем 146,7 MB
Ваш e-mail не будет опубликован. Он потребуется для подтверждения Вашего поста.
Оформление текста Нажмите «Ввод», чтобы отправить ответ.