За сегодня опубликовано 13 новых материалов.
Инструкция новичку Путеводитель по форуму Прокси для Telegram Показать подсказки , это бомба!

Скачать Лето (2018) WEB-DLRip | iTunes бесплатно через торрент

  • Получай до 480 рублей за каждого приглашенного пользователя!
    представляем Вам очередное расширение партнерской программы, подробности описаны тут -> ссылка
  • 90% материалов доступно к скачиванию после простой регистрации!
    Если же ты хочешь скачивать материалы без требования оставлять отзывы то получи группу "Новичок", 10 способов повышения описаны тут -> ссылка
  • К сожалению количество битых ссылок растет и мы уже не можем их оперативно восстанавливать поэтому просим помощи у каждого нашего пользователя.
    С сегодняшнего дня, за каждую восстановленную ссылку мы заплатим Вам.
    Подробнее тут -> ссылка
  • Перенесем твои заслуги с другого ресурса!
    Мы понимаем как сложно прокачивать аккаунты на форумах, вроде раскачал аккаунт, а тут появляется ресурс в 100 раз круче но тоже с системой прокачки и снова качать аккаунт...
    Предлагаем вам перенести Ваши заслуги на другом подобном ресурсе к нам.
    Подробности описаны тут -> ссылка
  • Вы можете получать по 2.5% с каждой покупки и продажи на маркете! Подробности в теме Партнёрская программа
Если Вы не хотите скачивать, Вы всегда можете посмотреть онлайн, просто нажмите кнопку ниже :

Открыть плеер

Torrent_Bot

Торрент-Бот
Бот форума
4 Окт 2016
125
32
20
Информация о фильме
Название: Лето
Год выхода: 2018
Жанр: Биография, музыка, драма
Режиссер: Кирилл Серебренников
В ролях: Рома Зверь, Ирина Старшенбаум, Тео Ю, Филипп Авдеев, Евгений Серзин, Александр Горчилин, Василий Михайлов, Александр Кузнецов, Никита Ефремов, Герман Осипов и др.

О фильме: Фильм рассказывает о самом начале творческого пути Виктора Цоя и группы «Кино», о его взаимоотношениях с Майком Науменко, его женой Натальей и многими, кто был в авангарде рок-движения Ленинграда 1981 года. Это история о Ленинграде 80-х, о любви, поисках и больших надеждах — о настроении, которое останется с нами навсегда.



Страна: Россия
Перевод: Не требуется
Продолжительность: 02:08:34

Файл
Формат: AVI
Качество: WEB-DLRip
Видео: Xvid, 720x272, ~1421 kbps, 23,976 fps
Звук: русский, AC3, 2 ch, 48 kHz, 192 kbps | iTunes
Субтитры: нет

MI
General
Полное имя : F:TorrentLeto.avi
Формат : AVI
Формат/Информация : Audio Video Interleave
Размер файла : 1.46 GiB
Продолжительность : 2 h 8 min
Общий поток : 1 622 kb/s
Библиотека кодирования : VirtualDub build 35491/release

Video
Идентификатор : 0
Формат : MPEG-4 Visual
Профиль формата : Advanced [email protected]
Настройки формата : BVOP2 / Custom Matrix
Параметр BVOP формата : 2
Параметр QPel формата : No
Параметр GMC формата : No warppoints
Параметр матрицы формата : Custom
Идентификатор кодека : XVID
Идентификатор кодека/Подсказка : XviD
Продолжительность : 2 h 8 min
Битрейт : 1 421 kb/s
Ширина : 720 pixels
Высота : 272 pixels
Соотношение сторон : 2.647
Частота кадров : 23.976 (24000/1001) FPS
Цветовое пространство : YUV
Субдискретизация насыщенности : 4:2:0
Битовая глубина : 8 bits
Тип развёртки : Progressive
Метод сжатия : Lossy
Бит/(Пиксели*Кадры) : 0.303
Размер потока : 1.28 GiB (88%)
Библиотека кодирования : XviD 67

Audio
Идентификатор : 1
Формат : AC-3
Формат/Информация : Audio Coding 3
Идентификатор кодека : 2000
Продолжительность : 2 h 8 min
Вид битрейта : Constant
Битрейт : 192 kb/s
Каналы : 2 channels
Расположение каналов : Front: L R
Частота : 48.0 kHz
Частота кадров : 31.250 FPS (1536 SPF)
Битовая глубина : 16 bits
Метод сжатия : Lossy
Размер потока : 177 MiB (12%)
Выравнивание : Aligned on interleaves
Продолжительность промежутка : 42 ms (1.00 video frame)
Время предзагрузки промежутка : 512 ms
Скриншоты


 

Вложения

  • 15,6 KB Просмотры: 0
    Личеров 0
    Сидеров 0
    Файлов 1
    Объем 1,5 GB
Ваш e-mail не будет опубликован. Он потребуется для подтверждения Вашего поста.
Оформление текста Нажмите «Ввод», чтобы отправить ответ.