За сегодня опубликовано 8 новых материалов.
Инструкция новичку Путеводитель по форуму Прокси для Telegram Показать подсказки , это бомба!

Скачать Лето (2018) WEB-DL 1080p | iTunes бесплатно через торрент

  • Получай до 480 рублей за каждого приглашенного пользователя!
    представляем Вам очередное расширение партнерской программы, подробности описаны тут -> ссылка
  • 90% материалов доступно к скачиванию после простой регистрации!
    Если же ты хочешь скачивать материалы без требования оставлять отзывы то получи группу "Новичок", 10 способов повышения описаны тут -> ссылка
  • К сожалению количество битых ссылок растет и мы уже не можем их оперативно восстанавливать поэтому просим помощи у каждого нашего пользователя.
    С сегодняшнего дня, за каждую восстановленную ссылку мы заплатим Вам.
    Подробнее тут -> ссылка
  • Перенесем твои заслуги с другого ресурса!
    Мы понимаем как сложно прокачивать аккаунты на форумах, вроде раскачал аккаунт, а тут появляется ресурс в 100 раз круче но тоже с системой прокачки и снова качать аккаунт...
    Предлагаем вам перенести Ваши заслуги на другом подобном ресурсе к нам.
    Подробности описаны тут -> ссылка
  • Вы можете получать по 2.5% с каждой покупки и продажи на маркете! Подробности в теме Партнёрская программа
Если Вы не хотите скачивать, Вы всегда можете посмотреть онлайн, просто нажмите кнопку ниже :

Открыть плеер

Torrent_Bot

Торрент-Бот
Бот форума
4 Окт 2016
125
31
20
Информация о фильме
Название: Лето
Год выхода: 2018
Жанр: Биография, музыка, драма
Страна: Россия
Перевод: Не требуется
Продолжительность: 02:08:34
Режиссер: Кирилл Серебренников
В ролях: Рома Зверь, Ирина Старшенбаум, Тео Ю, Филипп Авдеев, Евгений Серзин, Александр Горчилин, Василий Михайлов, Александр Кузнецов, Никита Ефремов, Герман Осипов и др.

О фильме: Фильм рассказывает о самом начале творческого пути Виктора Цоя и группы «Кино», о его взаимоотношениях с Майком Науменко, его женой Натальей и многими, кто был в авангарде рок-движения Ленинграда 1981 года. Это история о Ленинграде 80-х, о любви, поисках и больших надеждах — о настроении, которое останется с нами навсегда.



Файл
Формат: MKV
Качество: WEB-DL 1080p
Видео: MPEG-4 AVC, 1920x796, 4525 kbps, 23,976 fps
Звук: русский, AC3, 2 ch, 48 kHz, 192 kbps | iTunes
Субтитры: нет

MI
General
Уникальный идентификатор : 251549874506306558465085102077514747277 (0xBD3EBE5B6163E62BA042D8CF4B4E0D8D)
Полное имя : F:TorrentLeto1080p.mkv
Формат : Matroska
Версия формата : Version 4 / Version 2
Размер файла : 4.24 GiB
Продолжительность : 2 h 8 min
Общий поток : 4 719 kb/s
Дата кодирования : UTC 2018-07-28 17:22:39
Программа кодирования : mkvmerge v9.5.0 ('Quiet Fire') 64bit
Библиотека кодирования : libebml v1.3.4 + libmatroska v1.4.5

Video
Идентификатор : 1
Формат : AVC
Формат/Информация : Advanced Video Codec
Профиль формата : [email protected]
Настройки формата : CABAC / 5 Ref Frames
Параметр CABAC формата : Yes
Параметр RefFrames формата : 5 frames
Идентификатор кодека : V_MPEG4/ISO/AVC
Продолжительность : 2 h 8 min
Битрейт : 4 525 kb/s
Ширина : 1 920 pixels
Высота : 796 pixels
Соотношение сторон : 2.40:1
Режим частоты кадров : Constant
Частота кадров : 23.976 FPS
Цветовое пространство : YUV
Субдискретизация насыщенности : 4:2:0
Битовая глубина : 8 bits
Тип развёртки : Progressive
Бит/(Пиксели*Кадры) : 0.124
Размер потока : 4.06 GiB (96%)
Язык : English
Default : Yes
Forced : No
Цветовой диапазон : Limited
Основные цвета : BT.709
Характеристики трансфера : BT.709
Коэффициенты матрицы : BT.709

Audio
Идентификатор : 2
Формат : AC-3
Формат/Информация : Audio Coding 3
Идентификатор кодека : A_AC3
Продолжительность : 2 h 8 min
Вид битрейта : Constant
Битрейт : 192 kb/s
Каналы : 2 channels
Расположение каналов : Front: L R
Частота : 48.0 kHz
Частота кадров : 31.250 FPS (1536 SPF)
Битовая глубина : 16 bits
Метод сжатия : Lossy
Размер потока : 177 MiB (4%)
Язык : Russian
Default : Yes
Forced : No

Menu
00:00:00.000 : en:1
00:07:49.678 : en:2
00:19:53.276 : en:3
00:26:38.055 : en:4
00:33:11.531 : en:5
00:39:21.359 : en:6
00:47:48.532 : en:7
00:57:58.683 : en:8
01:03:25.968 : en:9
01:11:15.771 : en:10
01:19:38.148 : en:11
01:27:43.925 : en:12
01:34:11.103 : en:13
01:44:15.874 : en:14
01:50:17.652 : en:15
01:58:53.834 : en:16
Скриншоты


 

Вложения

  • 11,6 KB Просмотры: 0
    Личеров 0
    Сидеров 0
    Файлов 1
    Объем 4,2 GB
Ваш e-mail не будет опубликован. Он потребуется для подтверждения Вашего поста.
Оформление текста Нажмите «Ввод», чтобы отправить ответ.