За сегодня опубликовано 25 новых материалов.
Инструкция новичку Путеводитель по форуму Прокси для Telegram Показать подсказки , это бомба!

Скачать Красотка / Pretty Woman (1990) BDRip 720p | D, P, P2, A, L1 бесплатно через торрент

  • 90% материалов доступно к скачиванию после простой регистрации!
    Если же ты хочешь скачивать материалы без требования оставлять отзывы то получи группу "Новичок", 10 способов повышения описаны тут -> ссылка
  • К сожалению количество битых ссылок растет и мы уже не можем их оперативно восстанавливать поэтому просим помощи у каждого нашего пользователя.
    С сегодняшнего дня, за каждую восстановленную ссылку мы заплатим Вам.
    Подробнее тут -> ссылка
  • Перенесем твои заслуги с другого ресурса!
    Мы понимаем как сложно прокачивать аккаунты на форумах, вроде раскачал аккаунт, а тут появляется ресурс в 100 раз круче но тоже с системой прокачки и снова качать аккаунт...
    Предлагаем вам перенести Ваши заслуги на другом подобном ресурсе к нам.
    Подробности описаны тут -> ссылка
  • Вы можете получать по 2.5% с каждой покупки и продажи на маркете! Подробности в теме Партнёрская программа
Если Вы не хотите скачивать, Вы всегда можете посмотреть онлайн, просто нажмите кнопку ниже :

Открыть плеер

Torrent_Bot

Торрент-Бот
Бот форума
4 Окт 2016
125
17
20



Информация о фильме
Название: Красотка
Оригинальное название: Pretty Woman
Год выхода: 1990
Жанр:Мелодрама, комедия
Режиссер: Гэрри Маршалл
В ролях: Ричард Гир, Джулия Робертс, Ральф Беллами, Джейсон Александер, Лора Сан Джакомо, Алекс Хайд-Вайт, Эми Ясбек, Элинор Донахью, Гектор Элизондо, Джудит Болдуин

О фильме: Финансовый магнат Эдвард Льюис, проезжая по ночному городу, останавливается около красивой женщины. Ее зовут Вивьен и она берет только наличными. Наутро он понимает, что не хочет расставаться с ней и предлагает девушке остаться в его номере в отеле еще на некоторое время — за дополнительный гонорар. Вивьен оказывается в море блеска и лжи. Она терпит небрежное отношение к ней ради понравившегося мужчины, который перестал быть для нее просто клиентом.



Выпущено: США
Продолжительность: 01:59:37
Перевод: Дублированный, профессиональный многоголосый, профессиональный двухголосый, авторский, любительский одноголосый

Файл
Качество: BDRip 720p
Видео: MPEG-4 AVC, 7990 Кбит/с, 1280x694, 23.976 кадр/с
Аудио #01: Русский: AC3, 2 ch, 640 Кбит/с - Профессиональный двухголосый (Видеосервис с VHS)
Аудио #02: Русский: AC3, 6 ch, 640 Кбит/с - Дублированный (Blu-ray EUR)
Аудио #03: Русский: AC3, 6 ch, 640 Кбит/с - Профессиональный многоголосый (Карусель)
Аудио #04: Русский: AC3, 6 ch, 640 Кбит/с - Авторский одноголосый (Гаврилов)
Аудио #05: Русский: AC3, 6 ch, 640 Кбит/с - Авторский одноголосый (Михалёв)
Аудио #06: Русский: AC3, 6 ch, 640 Кбит/с - Авторский одноголосый (Живов)
Аудио #07: Русский: AC3, 2 ch, 192 Кбит/с - Дублированный (Первый канал)
Аудио #08: Русский: AC3, 6 ch, 448 Кбит/с - Профессиональный двухголосый (ОРТ)
Аудио #09: Русский: AC3, 6 ch, 448 Кбит/с - Профессиональный многоголосый (Киномания)
Аудио #10: Русский: AC3, 6 ch, 448 Кбит/с - Профессиональный двухголосый (Tycoon)
Аудио #11: Русский: AC3, 2 ch, 192 Кбит/с - Авторский одноголосый (Визгунов)
Аудио #12: Русский: AC3, 2 ch, 192 Кбит/с - Авторский одноголосый (Горчаков)
Аудио #13: Русский: AC3, 2 ch, 192 Кбит/с - Авторский одноголосый (Михалёв с (VHS)
Аудио #14: Русский: AC3, 2 ch, 192 Кбит/с - Авторский одноголосый (Живов)
Аудио #15: Русский: AC3, 6 ch, 448 Кбит/с - Любительский одноголосый (Тенетко)
Аудио #16: Русский: AC3, 2 ch, 192 Кбит/с - Любительский одноголосый
Аудио #17: Русский: AC3, 2 ch, 192 Кбит/с - Любительский одноголосый
Аудио #18: Украинский: AC3, 6 ch, 384 Кбит/с - Профессиональный многоголосый (1+1)
Аудио #19: Украинский: AC3, 6 ch, 384 Кбит/с - Профессиональный многоголосый (ТакТребаПродакшн)
Аудио #20: Украинский: AC3, 6 ch, 384 Кбит/с - Профессиональный многоголосый (Новый канал)
Аудио #21: Английский: AC3, 6 ch, 640 Кбит/с - Оригинал
Субтитры: Русские, украинские, английские
Главы: Есть

Релиз от:

Знаете ли вы, что...
• На постере к фильму представлена лишь некоторая часть Джулии Робертс. Дело в том, что голову Джулии наложили на тело Шэйлли Мишель. На том же постере волосы Ричарда Гира каштановые, а в самой картине седеющие.
• Опера, которой Ричард Гир очаровывает Джулию Робертс, носит название La Traviata (итал. «Сбившаяся с пути»). Она повествует о проститутке, влюбляющейся в богатого мужчину.
• Ричард Гир на самом деле играет на фортепьяно. К тому же, музыкальное произведение, которое он играл, Гир сочинил сам.
• Спортивная машина, которую Ричард Гир берёт на время в начале фильма - Лотус Эсприт (Lotus Esprit).
• В ранней версии сценария Вивьен принимала кокаин; частью сделки являлось то, что она должна была отказаться от него на неделю. Ей нужны были деньги, чтобы поехать в Диснэйлэнд. Эдвард, в конечном счете, выкидывает её из машины и уезжает. По сценарию фильм должен был закончиться тем, что Вивьен и её подруга проститутка едут в автобусе в Диснэйлэнд.
• В самом начале съемок Ричард Гир рьяно взялся за исполнение своей роли, но Гэрри Маршалл отвёл его в сторонку и сказал: «Нет, нет, нет. Ричард. В этом фильме действует один из вас. А другой из вас нет. Угадай, кто из них ты?»
• Красная куртка, которую носит Вивьен, была куплена за 30$ на улице у кино-билетёра незадолго до начала съёмок.
• В финальной сцене  Эдвард исполняет серенаду для Вивьен вместе с записью арии из La Traviata (итал. «Сбившаяся с пути»). В арии есть вокальное соло, сопровождаемое темой на струнных инструментах и на трубе. Эта аранжировка не являлась оригиналом оперы, а была адаптирована для фильма.
• Это последний фильм Ральфа Бэллами.
• Фильм, который смотрит Вивьен, перед тем, как спуститься вниз к Эдварду, называется «Шарада» (1963). Главные роли в этой картине исполнили Одри Хэпбёрн и Кэри Грант.
• Сцена, в которой Эдвард защёлкивает пальцы Вивьен футляром с ожерельем, была сымпровизирована Гиром, а реакция Робертс (смех) была абсолютно естественной. Фильм-мейкерам понравилось это настолько, что они решили оставить её.
• Машина, на которой Эдвард подбирает Вивьен, принадлежала продюсеру Нэнси Гроссу.
• Рабочее название фильма - «$3,000».
• Первоначально считалось, что Кристофер Рив исполнит роль Эдварда Льюиса.
• Аль Пачино также отказался от роли Эдварда Льюиса.
• Изначально роль Вивьен была предназначена Молли Рингвалд, но она от неё отказалась.
• Диснеевские продюсеры были против Джулии Робертс в роли Вивьен, вместо неё они хотели Мэг Райан.
• В самом начале картины можно заметить, что некоторые неоновые буквы в отеле, где живёт Вивьен, выгорели. Единственные оставшиеся светящиеся буквы - «HO» (от «hotel»/гостиница, «ho» на английском созвучно с «whore»/шлюха).
• Ожерелье, которое Вивьен надевает в оперу, в действительности стоит  $250,000. Во время съемок вооружённый сотрудник службы безопасности из ювелирного магазина всё время стоял за режиссёром.
• Дэрил Хэнна отказалась от роли Вивьен, предполагая, что после этой роли почувствует себя опороченной женщиной.
• Слушатели лондонской радиостанции «Capital FM» поставили этот фильм на 4 место в списке картин, строго рекомендованных к просмотру.
• Снимая сцену, в ходе которой Вивьен лежит на полу в пентхаусе Эдварда и смотрит повторы старого сериала «Я люблю Люси» (1951), дабы достигнуть неподдельного смеха, режиссёру Гэрри Маршалу пришлось щекотать ступни Робертс (разумеется, это осталось за кадром), чтобы заставить её так истерично смеяться.
• В период подготовки к съемкам «Красотки» Джулия Робертс постоянно находилась с женой Гарри Маршалла, которая руководила бесплатной клиникой, расположенной на бульваре Голливуда в Лос-Анджелесе.
• Режиссёрская версия фильма имеет хронометраж 125 минут.
• На роль проститутки Вивьен Уорд вначале предполагалась Джоди Фостер. Её же планировали снять в роли Элис Саттон из министерства юстиции в фильме «Теория заговора» (1997). Надо сказать, что как и Саттон в «Теории заговора», которая дружит с персонажем Мэла Гибсона, в жизни Фостер действительно дружна с этим актёром. Съёмки в «Теории заговора» вновь свели бы актрису на съёмочной площадке вместе с Гибсоном и с Ричардом Доннером, с которыми в 1994 году она работала в фильме «Мэверик».
Скриншоты
MediaInfo
Общее
Уникальный идентификатор : 172910049785581022185978218468318148370 (0x821543A654A36BE7917EA38CC2D87712)
Полное имя : Pretty.Woman.1990.720p.BluRay.16xRus.3xUkr.Eng.HDCLUB-SbR.mkv
Формат : Matroska
Версия формата : Version 2
Размер файла : 14,3 Гбайт
Продолжительность : 1 ч. 59 м.
Общий поток : 17,1 Мбит/сек
Название фильма : Pretty Woman (1990) - Encode by SbR
Дата кодирования : UTC 2017-03-26 05:41:12
Программа кодирования : mkvmerge v9.6.0 ('Slave To Your Mind') 64bit
Библиотека кодирования : libebml v1.3.4 + libmatroska v1.4.5
DURATION : 01:59:37.003000000
NUMBER_OF_FRAMES : 172076
NUMBER_OF_BYTES : 7478885999
_STATISTICS_WRITING_APP : mkvmerge v9.6.0 ('Slave To Your Mind') 64bit
_STATISTICS_WRITING_DATE_UTC : 2017-03-26 05:41:12
_STATISTICS_TAGS : BPS DURATION NUMBER_OF_FRAMES NUMBER_OF_BYTES
Attachment : Yes / Yes

Видео
Идентификатор : 1
Формат : AVC
Формат/Информация : Advanced Video Codec
Профиль формата : [email protected]
Параметр CABAC формата : Да
Параметр ReFrames формата : 9 кадров
Идентификатор кодека : V_MPEG4/ISO/AVC
Продолжительность : 1 ч. 59 м.
Битрейт : 7990 Кбит/сек
Ширина : 1280 пикселей
Высота : 694 пикселя
Соотношение сторон : 1,85:1
Режим частоты кадров : Постоянный
Частота кадров : 23,976 кадра/сек
Цветовое пространство : YUV
Субдискретизация насыщенности : 4:2:0
Битовая глубина : 8 бит
Тип развёртки : Прогрессивная
Бит/(Пиксели*Кадры) : 0.375
Размер потока : 6,68 Гбайт (47%)
Заголовок : Release for HDCLUB
Библиотека кодирования : x264 core 148 r2744kMod b97ae06
Настройки программы : cabac=1 / ref=9 / deblock=1:-2:-2 / analyse=0x3:0x133 / me=umh / subme=11 / psy=1 / fade_compensate=0.00 / psy_rd=1.00:0.00 / mixed_ref=1 / me_range=32 / chroma_me=1 / trellis=2 / 8x8dct=1 / cqm=0 / deadzone=21,11 / fast_pskip=1 / chroma_qp_offset=-2 / threads=12 / lookahead_threads=3 / sliced_threads=0 / nr=0 / decimate=1 / interlaced=0 / bluray_compat=0 / constrained_intra=0 / bframes=10 / b_pyramid=2 / b_adapt=2 / b_bias=0 / direct=1 / weightb=1 / open_gop=0 / weightp=2 / keyint=250 / keyint_min=23 / scenecut=40 / intra_refresh=0 / rc_lookahead=60 / rc=crf / mbtree=0 / crf=16.5000 / qcomp=0.60 / qpmin=0 / qpmax=69 / qpstep=4 / vbv_maxrate=62500 / vbv_bufsize=78125 / crf_max=0.0 / nal_hrd=none / filler=0 / ip_ratio=1.40 / pb_ratio=1.30 / aq=1:0.80
Язык : English
Default : Да
Forced : Нет
Основные цвета : BT.709
Характеристики трансфера : BT.709
Коэффициенты матрицы : BT.709

Аудио #1
Идентификатор : 2
Формат : AC-3
Формат/Информация : Audio Coding 3
Расширение режима : CM
Параметр Endianness формата : Big
Идентификатор кодека : A_AC3
Продолжительность : 1 ч. 59 м.
Вид битрейта : Постоянный
Битрейт : 640 Кбит/сек
Каналы : 2 канала
Расположение каналов : Front: L R
Частота : 48,0 КГц
Битовая глубина : 16 бит
Метод сжатия : С потерями
Размер потока : 548 Мбайт (4%)
Заголовок : Двухголосый закадровый, ВидеоСервис
Язык : Russian
Default : Да
Forced : Нет

Аудио #2
Идентификатор : 3
Формат : AC-3
Формат/Информация : Audio Coding 3
Расширение режима : CM
Параметр Endianness формата : Big
Идентификатор кодека : A_AC3
Продолжительность : 1 ч. 59 м.
Вид битрейта : Постоянный
Битрейт : 640 Кбит/сек
Каналы : 6 каналов
Расположение каналов : Front: L C R, Side: L R, LFE
Частота : 48,0 КГц
Битовая глубина : 16 бит
Метод сжатия : С потерями
Размер потока : 548 Мбайт (4%)
Заголовок : Дубляж, Blu-ray EUR
Язык : Russian
Default : Нет
Forced : Нет

Аудио #3
Идентификатор : 4
Формат : AC-3
Формат/Информация : Audio Coding 3
Расширение режима : CM
Параметр Endianness формата : Big
Идентификатор кодека : A_AC3
Продолжительность : 1 ч. 59 м.
Вид битрейта : Постоянный
Битрейт : 640 Кбит/сек
Каналы : 6 каналов
Расположение каналов : Front: L C R, Side: L R, LFE
Частота : 48,0 КГц
Битовая глубина : 16 бит
Метод сжатия : С потерями
Размер потока : 548 Мбайт (4%)
Заголовок : Многоголосый закадровый, Карусель
Язык : Russian
Default : Нет
Forced : Нет

Аудио #4
Идентификатор : 5
Формат : AC-3
Формат/Информация : Audio Coding 3
Расширение режима : CM
Параметр Endianness формата : Big
Идентификатор кодека : A_AC3
Продолжительность : 1 ч. 59 м.
Вид битрейта : Постоянный
Битрейт : 640 Кбит/сек
Каналы : 6 каналов
Расположение каналов : Front: L C R, Side: L R, LFE
Частота : 48,0 КГц
Битовая глубина : 16 бит
Метод сжатия : С потерями
Размер потока : 548 Мбайт (4%)
Заголовок : Гаврилов
Язык : Russian
Default : Нет
Forced : Нет

Аудио #5
Идентификатор : 6
Формат : AC-3
Формат/Информация : Audio Coding 3
Расширение режима : CM
Параметр Endianness формата : Big
Идентификатор кодека : A_AC3
Продолжительность : 1 ч. 59 м.
Вид битрейта : Постоянный
Битрейт : 640 Кбит/сек
Каналы : 6 каналов
Расположение каналов : Front: L C R, Side: L R, LFE
Частота : 48,0 КГц
Битовая глубина : 16 бит
Метод сжатия : С потерями
Размер потока : 548 Мбайт (4%)
Заголовок : Михалёв
Язык : Russian
Default : Нет
Forced : Нет

Аудио #6
Идентификатор : 7
Формат : AC-3
Формат/Информация : Audio Coding 3
Расширение режима : CM
Параметр Endianness формата : Big
Идентификатор кодека : A_AC3
Продолжительность : 1 ч. 59 м.
Вид битрейта : Постоянный
Битрейт : 640 Кбит/сек
Каналы : 6 каналов
Расположение каналов : Front: L C R, Side: L R, LFE
Частота : 48,0 КГц
Битовая глубина : 16 бит
Метод сжатия : С потерями
Размер потока : 548 Мбайт (4%)
Заголовок : Живов
Язык : Russian
Default : Нет
Forced : Нет

Аудио #7
Идентификатор : 8
Формат : AC-3
Формат/Информация : Audio Coding 3
Расширение режима : CM
Параметр Endianness формата : Big
Идентификатор кодека : A_AC3
Продолжительность : 1 ч. 59 м.
Вид битрейта : Постоянный
Битрейт : 192 Кбит/сек
Каналы : 2 канала
Расположение каналов : Front: L R
Частота : 48,0 КГц
Битовая глубина : 16 бит
Метод сжатия : С потерями
Размер потока : 164 Мбайт (1%)
Заголовок : Дубляж, Первый канал
Язык : Russian
Default : Нет
Forced : Нет

Аудио #8
Идентификатор : 9
Формат : AC-3
Формат/Информация : Audio Coding 3
Расширение режима : CM
Параметр Endianness формата : Big
Идентификатор кодека : A_AC3
Продолжительность : 1 ч. 59 м.
Вид битрейта : Постоянный
Битрейт : 448 Кбит/сек
Каналы : 6 каналов
Расположение каналов : Front: L C R, Side: L R, LFE
Частота : 48,0 КГц
Битовая глубина : 16 бит
Метод сжатия : С потерями
Размер потока : 384 Мбайт (3%)
Заголовок : Двухголосый закадровый, ОРТ
Язык : Russian
Default : Нет
Forced : Нет

Аудио #9
Идентификатор : 10
Формат : AC-3
Формат/Информация : Audio Coding 3
Расширение режима : CM
Параметр Endianness формата : Big
Идентификатор кодека : A_AC3
Продолжительность : 1 ч. 59 м.
Вид битрейта : Постоянный
Битрейт : 448 Кбит/сек
Каналы : 6 каналов
Расположение каналов : Front: L C R, Side: L R, LFE
Частота : 48,0 КГц
Битовая глубина : 16 бит
Метод сжатия : С потерями
Размер потока : 384 Мбайт (3%)
Заголовок : Двухголосый закадровый, Киномания
Язык : Russian
Default : Нет
Forced : Нет

Аудио #10
Идентификатор : 11
Формат : AC-3
Формат/Информация : Audio Coding 3
Расширение режима : CM
Параметр Endianness формата : Big
Идентификатор кодека : A_AC3
Продолжительность : 1 ч. 59 м.
Вид битрейта : Постоянный
Битрейт : 448 Кбит/сек
Каналы : 6 каналов
Расположение каналов : Front: L C R, Side: L R, LFE
Частота : 48,0 КГц
Битовая глубина : 16 бит
Метод сжатия : С потерями
Размер потока : 384 Мбайт (3%)
Заголовок : Двухголосый закадровый, Tycoon
Язык : Russian
Default : Нет
Forced : Нет

Аудио #11
Идентификатор : 12
Формат : AC-3
Формат/Информация : Audio Coding 3
Расширение режима : CM
Параметр Endianness формата : Big
Идентификатор кодека : A_AC3
Продолжительность : 1 ч. 59 м.
Вид битрейта : Постоянный
Битрейт : 192 Кбит/сек
Каналы : 2 канала
Расположение каналов : Front: L R
Частота : 48,0 КГц
Битовая глубина : 16 бит
Метод сжатия : С потерями
Размер потока : 164 Мбайт (1%)
Заголовок : Визгунов
Язык : Russian
Default : Нет
Forced : Нет

Аудио #12
Идентификатор : 13
Формат : AC-3
Формат/Информация : Audio Coding 3
Расширение режима : CM
Параметр Endianness формата : Big
Идентификатор кодека : A_AC3
Продолжительность : 1 ч. 59 м.
Вид битрейта : Постоянный
Битрейт : 192 Кбит/сек
Каналы : 2 канала
Расположение каналов : Front: L R
Частота : 48,0 КГц
Битовая глубина : 16 бит
Метод сжатия : С потерями
Размер потока : 164 Мбайт (1%)
Заголовок : Горчаков
Язык : Russian
Default : Нет
Forced : Нет

Аудио #13
Идентификатор : 14
Формат : AC-3
Формат/Информация : Audio Coding 3
Расширение режима : CM
Параметр Endianness формата : Big
Идентификатор кодека : A_AC3
Продолжительность : 1 ч. 59 м.
Вид битрейта : Постоянный
Битрейт : 192 Кбит/сек
Каналы : 2 канала
Расположение каналов : Front: L R
Частота : 48,0 КГц
Битовая глубина : 16 бит
Метод сжатия : С потерями
Размер потока : 164 Мбайт (1%)
Заголовок : Михалёв
Язык : Russian
Default : Нет
Forced : Нет

Аудио #14
Идентификатор : 15
Формат : AC-3
Формат/Информация : Audio Coding 3
Расширение режима : CM
Параметр Endianness формата : Big
Идентификатор кодека : A_AC3
Продолжительность : 1 ч. 59 м.
Вид битрейта : Постоянный
Битрейт : 192 Кбит/сек
Каналы : 2 канала
Расположение каналов : Front: L R
Частота : 48,0 КГц
Битовая глубина : 16 бит
Метод сжатия : С потерями
Размер потока : 164 Мбайт (1%)
Заголовок : Живов
Язык : Russian
Default : Нет
Forced : Нет

Аудио #15
Идентификатор : 16
Формат : AC-3
Формат/Информация : Audio Coding 3
Расширение режима : CM
Параметр Endianness формата : Big
Идентификатор кодека : A_AC3
Продолжительность : 1 ч. 59 м.
Вид битрейта : Постоянный
Битрейт : 448 Кбит/сек
Каналы : 6 каналов
Расположение каналов : Front: L C R, Side: L R, LFE
Частота : 48,0 КГц
Битовая глубина : 16 бит
Метод сжатия : С потерями
Размер потока : 384 Мбайт (3%)
Заголовок : Тенетко
Язык : Russian
Default : Нет
Forced : Нет

Аудио #16
Идентификатор : 17
Формат : AC-3
Формат/Информация : Audio Coding 3
Расширение режима : CM
Параметр Endianness формата : Big
Идентификатор кодека : A_AC3
Продолжительность : 1 ч. 59 м.
Вид битрейта : Постоянный
Битрейт : 192 Кбит/сек
Каналы : 2 канала
Расположение каналов : Front: L R
Частота : 48,0 КГц
Битовая глубина : 16 бит
Метод сжатия : С потерями
Размер потока : 164 Мбайт (1%)
Заголовок : Неизвестный
Язык : Russian
Default : Нет
Forced : Нет

Аудио #17
Идентификатор : 18
Формат : AC-3
Формат/Информация : Audio Coding 3
Расширение режима : CM
Параметр Endianness формата : Big
Идентификатор кодека : A_AC3
Продолжительность : 1 ч. 59 м.
Вид битрейта : Постоянный
Битрейт : 192 Кбит/сек
Каналы : 2 канала
Расположение каналов : Front: L R
Частота : 48,0 КГц
Битовая глубина : 16 бит
Метод сжатия : С потерями
Размер потока : 164 Мбайт (1%)
Заголовок : Неизвестный
Язык : Russian
Default : Нет
Forced : Нет

Аудио #18
Идентификатор : 19
Формат : AC-3
Формат/Информация : Audio Coding 3
Расширение режима : CM
Параметр Endianness формата : Big
Идентификатор кодека : A_AC3
Продолжительность : 1 ч. 59 м.
Вид битрейта : Постоянный
Битрейт : 384 Кбит/сек
Каналы : 6 каналов
Расположение каналов : Front: L C R, Side: L R, LFE
Частота : 48,0 КГц
Битовая глубина : 16 бит
Метод сжатия : С потерями
Размер потока : 329 Мбайт (2%)
Заголовок : Двухголосый закадровый, 1+1
Язык : Ukrainian
Default : Нет
Forced : Нет

Аудио #19
Идентификатор : 20
Формат : AC-3
Формат/Информация : Audio Coding 3
Расширение режима : CM
Параметр Endianness формата : Big
Идентификатор кодека : A_AC3
Продолжительность : 1 ч. 59 м.
Вид битрейта : Постоянный
Битрейт : 384 Кбит/сек
Каналы : 6 каналов
Расположение каналов : Front: L C R, Side: L R, LFE
Частота : 48,0 КГц
Битовая глубина : 16 бит
Метод сжатия : С потерями
Размер потока : 329 Мбайт (2%)
Заголовок : Многоголосый закадровый, ТакТребаПродакшн
Язык : Ukrainian
Default : Нет
Forced : Нет

Аудио #20
Идентификатор : 21
Формат : AC-3
Формат/Информация : Audio Coding 3
Расширение режима : CM
Параметр Endianness формата : Big
Идентификатор кодека : A_AC3
Продолжительность : 1 ч. 59 м.
Вид битрейта : Постоянный
Битрейт : 384 Кбит/сек
Каналы : 6 каналов
Расположение каналов : Front: L C R, Side: L R, LFE
Частота : 48,0 КГц
Битовая глубина : 16 бит
Метод сжатия : С потерями
Размер потока : 329 Мбайт (2%)
Заголовок : Многоголосый закадровый, Новий Канал
Язык : Ukrainian
Default : Нет
Forced : Нет

Аудио #21
Идентификатор : 22
Формат : AC-3
Формат/Информация : Audio Coding 3
Расширение режима : CM
Параметр Endianness формата : Big
Идентификатор кодека : A_AC3
Продолжительность : 1 ч. 59 м.
Вид битрейта : Постоянный
Битрейт : 640 Кбит/сек
Каналы : 6 каналов
Расположение каналов : Front: L C R, Side: L R, LFE
Частота : 48,0 КГц
Битовая глубина : 16 бит
Метод сжатия : С потерями
Размер потока : 548 Мбайт (4%)
Язык : English
Default : Нет
Forced : Нет

Текст #1
Идентификатор : 23
Формат : UTF-8
Идентификатор кодека : S_TEXT/UTF8
Идентификатор кодека/Информация : UTF-8 Plain Text
Язык : Russian
Default : Нет
Forced : Нет

Текст #2
Идентификатор : 24
Формат : UTF-8
Идентификатор кодека : S_TEXT/UTF8
Идентификатор кодека/Информация : UTF-8 Plain Text
Язык : Ukrainian
Default : Нет
Forced : Нет

Текст #3
Идентификатор : 25
Формат : UTF-8
Идентификатор кодека : S_TEXT/UTF8
Идентификатор кодека/Информация : UTF-8 Plain Text
Язык : English
Default : Нет
Forced : Нет

Текст #4
Идентификатор : 26
Формат : UTF-8
Идентификатор кодека : S_TEXT/UTF8
Идентификатор кодека/Информация : UTF-8 Plain Text
Язык : English
Default : Нет
Forced : Нет

Текст #5
Идентификатор : 27
Формат : UTF-8
Идентификатор кодека : S_TEXT/UTF8
Идентификатор кодека/Информация : UTF-8 Plain Text
Язык : English
Default : Нет
Forced : Нет

Меню
00:00:00.000 : en:Opening Credits
00:09:26.398 : en:Lookin' For A Date?
00:13:39.234 : en:In The Driver's Seat
00:18:51.130 : en:The Penthouse
00:34:00.038 : en:A Business Proposition
00:41:51.967 : en:Trouble At The Hotel
00:44:46.684 : en:A Setback
00:49:52.030 : en:Working Dinner
00:54:50.077 : en:Love On A Piano
01:00:35.756 : en:Shopping Spree
01:08:36.487 : en:At The Polo Match
01:17:20.636 : en:pillow Talk
01:21:09.323 : en:Dressed To The Nines
01:29:10.177 : en:Just Semantics
01:35:29.140 : en:A Change Of Interest
01:42:23.636 : en:Unpleasant Caller
01:48:39.595 : en:Back To Reality
01:52:34.456 : en:princess Vivian
01:56:27.189 : en:End Credits
 

Вложения

  • 18,9 KB Просмотры: 0
    Личеров 0
    Сидеров 0
    Файлов 1
    Объем 14,3 GB
Ваш e-mail не будет опубликован. Он потребуется для подтверждения Вашего поста.
Оформление текста Нажмите «Ввод», чтобы отправить ответ.

Привет!

Мы группа людей которые решили помочь другим в решении их проблем, а так же пользователям с поиском самых свежих и качественных инфопродуктов. За 4 с небольшим месяца мы создали этот форум на который заходят ежедневно тысячи человек и посещаемость постоянно растёт. Мы создали панель лицензирования для защиты PHP скриптов от воровства и SEO панель для мониторинга наших сайтов и выбора верной стратегии их развития. Мы надеемся что то что мы создали пригодится Вам и возможно Вы поможете нам развиваться и совершенствоваться вместе с Вами.

Статистика форума

Темы
347.221
Сообщения
372.716
Пользователи
28.484
Новый пользователь
Наум

Приложения форума для iOS и Android


У ркн там нет власти ;)
Гостевуха
Помощь Пользователи
  • H Chat Bot:
    Гость hjjjj присоединился к комнате.
    +1
  • H (Гость) hjjjj:
    тест
    Цитата
  • mizaider @ mizaider:
    Ну что там. Тест пройден или нет? Я волнуюсь.
    Цитата
  • V Chat Bot:
    Гость Vapasik2 присоединился к комнате.
  • V (Гость) Vapasik2:
    Добрый вечер. Не могу восстановить пароль (не приходит уведомление на почту).
    Цитата
  • V (Гость) Vapasik2:
    Что делать?
    Цитата
  • Alpha @ Alpha:
    Vapasik2 написал(а):
    Напишите в тех-поддержку Создать заявку
    Цитата
  • T Chat Bot:
    tezka75 присоединился(лась) к комнате.
  • D Chat Bot:
    DmitryB покинул(а) комнату.
  • Captain @ Captain:
    Батя в здание
    Цитата
  • Eevee @ Eevee:
    <script>alert('Привет))')</script>
    Цитата
  • Eevee @ Eevee:
    упс
    Цитата
  • mizaider @ mizaider:
    Не ну это бан
    Цитата
  • Captain @ Captain:
    Батя в здание
    Цитата
  • Captain @ Captain:
    @mizaider, чек лс@mizaider, чек лс
    Цитата
  • kolyan-malyan Chat Bot:
    kolyan-malyan покинул(а) комнату.
  • S Chat Bot:
    stylvihos покинул(а) комнату.
  • Verniki Chat Bot:
    Verniki присоединился(лась) к комнате.
  • Verniki @ Verniki:
    Уважаемые,пожалуйста, поясните мне - динозавру, что значит "тема в TOR"?
    Цитата
  • G Chat Bot:
    Garry_ покинул(а) комнату.
  • N Chat Bot:
    nyuh_900 покинул(а) комнату.
  • A Chat Bot:
    Asqw покинул(а) комнату.
    A Chat Bot: Asqw покинул(а) комнату.