За сегодня опубликовано 14 новых материалов.
Инструкция новичку Путеводитель по форуму Прокси для Telegram Показать подсказки , это бомба!

Скачать Красная черта / Redline (2009) BDRip 1080p от NoLimits-Team бесплатно через торрент

  • Получай до 480 рублей за каждого приглашенного пользователя!
    представляем Вам очередное расширение партнерской программы, подробности описаны тут -> ссылка
  • 90% материалов доступно к скачиванию после простой регистрации!
    Если же ты хочешь скачивать материалы без требования оставлять отзывы то получи группу "Новичок", 10 способов повышения описаны тут -> ссылка
  • К сожалению количество битых ссылок растет и мы уже не можем их оперативно восстанавливать поэтому просим помощи у каждого нашего пользователя.
    С сегодняшнего дня, за каждую восстановленную ссылку мы заплатим Вам.
    Подробнее тут -> ссылка
  • Перенесем твои заслуги с другого ресурса!
    Мы понимаем как сложно прокачивать аккаунты на форумах, вроде раскачал аккаунт, а тут появляется ресурс в 100 раз круче но тоже с системой прокачки и снова качать аккаунт...
    Предлагаем вам перенести Ваши заслуги на другом подобном ресурсе к нам.
    Подробности описаны тут -> ссылка
  • Вы можете получать по 2.5% с каждой покупки и продажи на маркете! Подробности в теме Партнёрская программа

Torrent_Bot

Торрент-Бот
Бот форума
4 Окт 2016
125
31
20
Информация о фильме
Название: Красная черта
Оригинальное название: Redline
Год выхода: 2009
Жанр: Аниме, мультфильм, фантастика, боевик
Режиссер: Такэси Коикэ
Выпущено: Япония
Продолжительность: 01:42:08
Перевод: Авторский одноголосый, Любительский двухголосый
В ролях: Такуя Кимура, Аои Ю, Таданобу Асано, Акеми, Марк Аллен мл., Такеси Аоно, Каттер Митчел, Тацуя Гасюин, Кенью Хориути, Кодзи Исий

Сюжет фильма
Самая опасная и адреналиновая гонка на спортивных автомобилях во вселенной проводится раз в пять лет. И это случится сегодня. JP, гонщик-сорвиголова, занял свою позицию на старте. Гонщица Соноши, в которую тайно влюблен JP, тоже здесь в эту ночь. В этой гонке разрешено абсолютно все, а машины оборудованы современным оружием.


Файл
Качество: BDRip 1080p (DVD9) (исходник Blu-ray Disc)
Видео: 1860x1044, 9345 Кбит/сек, 23,976 кадр/сек, AVC, x264, [email protected], 16:9, 0.201 Бит/[Пиксели*Кадры], 2pass
Аудио 1: AC-3, 448 Кбит/сек, 6 канала(ов), 48,0 КГц - Любительский двухголосый, JAM & Eladiel (Animedia) / Русский (Установлен по умолчанию)
Аудио 2: AC-3, 448 Кбит/сек, 6 канала(ов), 48,0 КГц - Любительский двухголосый, Ancord & Nika Lenina / Русский
Аудио 3: AC-3, 448 Кбит/сек, 6 канала(ов), 48,0 КГц - Авторский одноголосый, Ю.Сербин / Русский
Аудио 4: AC-3, 448 Кбит/сек, 6 канала(ов), 48,0 КГц - Оригинал / Японский
Субтитры: Русские | Полные (Kos-chan & Gorhla)
Чаптеры: Есть

707ea77ce6adf62a965bb050def1e193.gif
Релиз Группа | Автор Рипа:


Скриншоты
MediaInfo
Format : Matroska
Format version : Version 4 / Version 2
File size : 7.95 GiB
Duration : 1h 42mn
Overall bit rate : 11.1 Mbps
Movie name : Красная черта.(2009).BDRip.1080p.(DVD9).[NoLimits-Team]
Encoded date : UTC 2013-05-16 15:37:53
Writing application : mkvmerge v6.0.0 ('Coming Up For Air') built on Jan 20 2013 09:52:00
Writing library : libebml v1.3.0 + libmatroska v1.4.0

Video
ID : 1
Format : AVC
Format/Info : Advanced Video Codec
Format profile : [email protected]
Format settings, CABAC : Yes
Format settings, ReFrames : 4 frames
Codec ID : V_MPEG4/ISO/AVC
Duration : 1h 42mn
Bit rate : 9 345 Kbps
Width : 1 860 pixels
Height : 1 044 pixels
Display aspect ratio : 16:9
Frame rate mode : Constant
Frame rate : 23.976 fps
Color space : YUV
Chroma subsampling : 4:2:0
Bit depth : 8 bits
Scan type : Progressive
Bits/(Pixel*Frame) : 0.201
Stream size : 6.51 GiB (82%)
Title : Красная черта.(2009).BDRip.1080p.(DVD9).[NoLimits-Team]
Writing library : x264 core 132 r2310 76a5c3a
Encoding settings : cabac=1 / ref=4 / deblock=1:0:0 / analyse=0x3:0x133 / me=umh / subme=11 / psy=1 / psy_rd=1.00:0.00 / mixed_ref=1 / me_range=64 / chroma_me=1 / trellis=2 / 8x8dct=1 / cqm=0 / deadzone=21,11 / fast_pskip=0 / chroma_qp_offset=-2 / threads=9 / lookahead_threads=2 / sliced_threads=0 / nr=0 / decimate=1 / interlaced=0 / bluray_compat=0 / constrained_intra=0 / bframes=12 / b_pyramid=2 / b_adapt=2 / b_bias=0 / direct=3 / weightb=1 / open_gop=0 / weightp=2 / keyint=240 / keyint_min=23 / scenecut=40 / intra_refresh=0 / rc_lookahead=60 / rc=2pass / mbtree=1 / bitrate=9345 / ratetol=1.0 / qcomp=0.60 / qpmin=0 / qpmax=69 / qpstep=4 / cplxblur=20.0 / qblur=0.5 / ip_ratio=1.40 / aq=1:1.00
Language : English
Default : Yes
Forced : No

Audio #1
ID : 2
Format : AC-3
Format/Info : Audio Coding 3
Mode extension : CM (complete main)
Format settings, Endianness : Big
Codec ID : A_AC3
Duration : 1h 42mn
Bit rate mode : Constant
Bit rate : 448 Kbps
Channel(s) : 6 channels
Channel positions : Front: L C R, Side: L R, LFE
Sampling rate : 48.0 KHz
Bit depth : 16 bits
Compression mode : Lossy
Stream size : 327 MiB (4%)
Title : JAM & Eladiel (Animedia)
Language : Russian
Default : Yes
Forced : No

Audio #2
ID : 3
Format : AC-3
Format/Info : Audio Coding 3
Mode extension : CM (complete main)
Format settings, Endianness : Big
Codec ID : A_AC3
Duration : 1h 42mn
Bit rate mode : Constant
Bit rate : 448 Kbps
Channel(s) : 6 channels
Channel positions : Front: L C R, Side: L R, LFE
Sampling rate : 48.0 KHz
Bit depth : 16 bits
Compression mode : Lossy
Stream size : 327 MiB (4%)
Title : Ancord & Nika Lenina
Language : Russian
Default : No
Forced : No

Audio #3
ID : 4
Format : AC-3
Format/Info : Audio Coding 3
Mode extension : CM (complete main)
Format settings, Endianness : Big
Codec ID : A_AC3
Duration : 1h 42mn
Bit rate mode : Constant
Bit rate : 448 Kbps
Channel(s) : 6 channels
Channel positions : Front: L C R, Side: L R, LFE
Sampling rate : 48.0 KHz
Bit depth : 16 bits
Compression mode : Lossy
Stream size : 327 MiB (4%)
Title : Ю.Сербин
Language : Russian
Default : No
Forced : No

Audio #4
ID : 5
Format : AC-3
Format/Info : Audio Coding 3
Mode extension : CM (complete main)
Format settings, Endianness : Big
Codec ID : A_AC3
Duration : 1h 42mn
Bit rate mode : Constant
Bit rate : 448 Kbps
Channel(s) : 6 channels
Channel positions : Front: L C R, Side: L R, LFE
Sampling rate : 48.0 KHz
Bit depth : 16 bits
Compression mode : Lossy
Stream size : 327 MiB (4%)
Title : Японская
Language : Japanese
Default : No
Forced : No

Text
ID : 6
Format : ASS
Codec ID : S_TEXT/ASS
Codec ID/Info : Advanced Sub Station Alpha
Compression mode : Lossless
Title : Русские (полные)
Language : Russian
Default : No
Forced : No

Menu
00:00:00.000 : :Chapter 01
00:00:16.099 : :Chapter 02
00:00:30.613 : :Chapter 03
00:02:41.244 : :Chapter 04
00:06:12.747 : :Chapter 05
00:09:49.755 : :Chapter 06
00:12:22.366 : :Chapter 07
00:14:06.053 : :Chapter 08
00:16:24.274 : :Chapter 09
00:19:28.000 : :Chapter 10
00:22:11.288 : :Chapter 11
00:24:46.067 : :Chapter 12
00:29:25.054 : :Chapter 13
00:35:31.462 : :Chapter 14
00:38:32.852 : :Chapter 15
00:40:39.103 : :Chapter 16
00:43:45.080 : :Chapter 17
00:46:12.436 : :Chapter 18
00:49:31.259 : :Chapter 19
00:54:52.038 : :Chapter 20
00:58:21.915 : :Chapter 21
01:03:46.697 : :Chapter 22
01:07:41.140 : :Chapter 23
01:11:42.047 : :Chapter 24
01:15:31.902 : :Chapter 25
01:19:26.845 : :Chapter 26
01:21:20.792 : :Chapter 27
01:22:55.261 : :Chapter 28
01:28:07.865 : :Chapter 29
01:30:32.885 : :Chapter 30
01:33:25.349 : :Chapter 31
01:37:12.284 : :Chapter 32

 

Вложения

Ваш e-mail не будет опубликован. Он потребуется для подтверждения Вашего поста.
Оформление текста Нажмите «Ввод», чтобы отправить ответ.