За сегодня опубликовано 13 новых материалов.
Инструкция новичку Путеводитель по форуму Прокси для Telegram Показать подсказки , это бомба!

Скачать Kenny Wayne Shepherd Band - Lay It On Down (2017) FLAC бесплатно через торрент

  • Получай до 480 рублей за каждого приглашенного пользователя!
    представляем Вам очередное расширение партнерской программы, подробности описаны тут -> ссылка
  • 90% материалов доступно к скачиванию после простой регистрации!
    Если же ты хочешь скачивать материалы без требования оставлять отзывы то получи группу "Новичок", 10 способов повышения описаны тут -> ссылка
  • К сожалению количество битых ссылок растет и мы уже не можем их оперативно восстанавливать поэтому просим помощи у каждого нашего пользователя.
    С сегодняшнего дня, за каждую восстановленную ссылку мы заплатим Вам.
    Подробнее тут -> ссылка
  • Перенесем твои заслуги с другого ресурса!
    Мы понимаем как сложно прокачивать аккаунты на форумах, вроде раскачал аккаунт, а тут появляется ресурс в 100 раз круче но тоже с системой прокачки и снова качать аккаунт...
    Предлагаем вам перенести Ваши заслуги на другом подобном ресурсе к нам.
    Подробности описаны тут -> ссылка
  • Вы можете получать по 2.5% с каждой покупки и продажи на маркете! Подробности в теме Партнёрская программа

Torrent_Bot

Торрент-Бот
Бот форума
4 Окт 2016
125
32
20



Группа: Kenny Wayne Shepherd Band
Альбом: Lay It On Down
Год: 2017
Жанр: Blues Rock
Страна группы: United States

Продолжительность: 00:45:22
Формат/Кодек: FLAC (tracks+.cue)
Битрейт аудио: Lossless

Discogs
Wikipedia
Яндекс Музыка
Официальный сайт

Трек-лист
01. Baby got gone
02. Diamonds & Gold
03. Nothing but the night
04. Lay it on down
05. She's $$$
06. Hard lesson learned
07. Down for love
08. How long can you go
09. Louisiana Rain
10. Ride of your live
11. Lay it on down (Acoustic Bonus Track)
Лог создания рипа
Exact Audio Copy V1.0 beta 3 from 29. August 2011

EAC extraction logfile from 29. July 2017, 12:37

Kenny Wayne Shepherd Band / Lay It On Down

Used drive : ASUS DRW-24F1ST a Adapter: 0 ID: 0

Read mode : Secure
Utilize accurate stream : Yes
Defeat audio cache : Yes
Make use of C2 pointers : No

Read offset correction : 6
Overread into Lead-In and Lead-Out : No
Fill up missing offset samples with silence : Yes
Delete leading and trailing silent blocks : No
Null samples used in CRC calculations : Yes
Used interface : Native Win32 interface for Win NT & 2000
Gap handling : Appended to previous track

Used output format : User Defined Encoder
Selected bitrate : 128 kBit/s
Quality : High
Add ID3 tag : No
Command line compressor : C:program Files (x86)Exact Audio CopyFLACFLAC.EXE
Additional command line options : -8 -V -T "ARTIST=%artist%" -T "TITLE=%title%" -T "ALBUM=%albumtitle%" -T "DATE=%year%" -T "TRACKNUMBER=%tracknr%" -T "TOTALTRACKS=%numtracks%" -T "GENRE=%genre%" -T "ALBUMARTIST=%albumartist%" -T "ALBUM ARTIST=%albumartist%" -T "COMMENT=EAC Secure Mode, Test & Copy, AccurateRip, FLAC -8" %source%

TOC of the extracted CD

Track | Start | Length | Start sector | End sector
---------------------------------------------------------
1 | 0:00.00 | 3:02.40 | 0 | 13689
2 | 3:02.40 | 5:17.58 | 13690 | 37522
3 | 8:20.23 | 4:53.38 | 37523 | 59535
4 | 13:13.61 | 4:14.65 | 59536 | 78650
5 | 17:28.51 | 4:07.17 | 78651 | 97192
6 | 21:35.68 | 4:29.48 | 97193 | 117415
7 | 26:05.41 | 4:10.07 | 117416 | 136172
8 | 30:15.48 | 2:59.65 | 136173 | 149662
9 | 33:15.38 | 3:51.08 | 149663 | 166995
10 | 37:06.46 | 4:01.03 | 166996 | 185073
11 | 41:07.49 | 4:14.42 | 185074 | 204165

Track 1

Filename K:EAC1 - Baby got gone.wav

Pre-gap length 0:00:02.00

Peak level 100.0 %
Extraction speed 4.1 X
Track quality 100.0 %
Test CRC 830BC4A7
Copy CRC 830BC4A7
Track not present in AccurateRip database
Copy OK

Track 2

Filename K:EAC2 - Diamonds & Gold.wav

Pre-gap length 0:00:02.16

Peak level 100.0 %
Extraction speed 5.0 X
Track quality 100.0 %
Test CRC E2092168
Copy CRC E2092168
Track not present in AccurateRip database
Copy OK

Track 3

Filename K:EAC3 - Nothing but the night.wav

Pre-gap length 0:00:01.55

Peak level 100.0 %
Extraction speed 5.4 X
Track quality 100.0 %
Test CRC 98954222
Copy CRC 98954222
Track not present in AccurateRip database
Copy OK

Track 4

Filename K:EAC4 - Lay it on down.wav

Peak level 100.0 %
Extraction speed 5.7 X
Track quality 100.0 %
Test CRC 2B0AA004
Copy CRC 2B0AA004
Track not present in AccurateRip database
Copy OK

Track 5

Filename K:EAC5 - She's $$$.wav

Peak level 100.0 %
Extraction speed 6.1 X
Track quality 100.0 %
Test CRC 01C8880B
Copy CRC 01C8880B
Track not present in AccurateRip database
Copy OK

Track 6

Filename K:EAC6 - Hard lesson learned.wav

Pre-gap length 0:00:02.01

Peak level 100.0 %
Extraction speed 6.5 X
Track quality 100.0 %
Test CRC 60949386
Copy CRC 60949386
Track not present in AccurateRip database
Copy OK

Track 7

Filename K:EAC7 - Down for love.wav

Pre-gap length 0:00:01.53

Peak level 100.0 %
Extraction speed 6.8 X
Track quality 100.0 %
Test CRC 56E4EDE5
Copy CRC 56E4EDE5
Track not present in AccurateRip database
Copy OK

Track 8

Filename K:EAC8 - How long can you go.wav

Pre-gap length 0:00:01.51

Peak level 100.0 %
Extraction speed 6.7 X
Track quality 100.0 %
Test CRC FBA0ADA4
Copy CRC FBA0ADA4
Track not present in AccurateRip database
Copy OK

Track 9

Filename K:EAC9 - Louisiana Rain.wav

Pre-gap length 0:00:02.07

Peak level 100.0 %
Extraction speed 7.1 X
Track quality 100.0 %
Test CRC A861DD8E
Copy CRC A861DD8E
Track not present in AccurateRip database
Copy OK

Track 10

Filename K:EAC10 - Ride of your live.wav

Pre-gap length 0:00:01.29

Peak level 100.0 %
Extraction speed 6.6 X
Track quality 99.9 %
Test CRC 6A576411
Copy CRC 6A576411
Track not present in AccurateRip database
Copy OK

Track 11

Filename K:EAC11 - Lay it on down (Acoustics Bonus Track).wav

Pre-gap length 0:00:06.39

Peak level 100.0 %
Extraction speed 7.8 X
Track quality 100.0 %
Test CRC 4B885B26
Copy CRC 4B885B26
Track not present in AccurateRip database
Copy OK

None of the tracks are present in the AccurateRip database

No errors occurred

End of status report

==== Log checksum E2B31AA72A454BB8C61BE07760650CA4C8F81A7C4E9B4F6E5A8AE32CE34E2ADC ====
Содержание индексной карты (.CUE)
REM GENRE Blues
REM DATE 2017
REM DISCID A50AA20B
REM COMMENT "ExactAudioCopy v1.0b3"
PERFORMER "Kenny Wayne Shepherd Band"
TITLE "Lay It On Down"
FILE "01 - Baby got gone.wav" WAVE
TRACK 01 AUDIO
TITLE "Baby got gone"
PERFORMER "Kenny Wayne Shepherd Band"
INDEX 01 00:00:00
TRACK 02 AUDIO
TITLE "Diamonds & Gold"
PERFORMER "Kenny Wayne Shepherd Band"
INDEX 00 03:00:24
FILE "02 - Diamonds & Gold.wav" WAVE
INDEX 01 00:00:00
TRACK 03 AUDIO
TITLE "Nothing but the night"
PERFORMER "Kenny Wayne Shepherd Band"
INDEX 00 05:16:03
FILE "03 - Nothing but the night.wav" WAVE
INDEX 01 00:00:00
FILE "04 - Lay it on down.wav" WAVE
TRACK 04 AUDIO
TITLE "Lay it on down"
PERFORMER "Kenny Wayne Shepherd Band"
INDEX 01 00:00:00
FILE "05 - She's $$$.wav" WAVE
TRACK 05 AUDIO
TITLE "She's $$$"
PERFORMER "Kenny Wayne Shepherd Band"
INDEX 01 00:00:00
TRACK 06 AUDIO
TITLE "Hard lesson learned"
PERFORMER "Kenny Wayne Shepherd Band"
INDEX 00 04:05:16
FILE "06 - Hard lesson learned.wav" WAVE
INDEX 01 00:00:00
TRACK 07 AUDIO
TITLE "Down for love"
PERFORMER "Kenny Wayne Shepherd Band"
INDEX 00 04:27:70
FILE "07 - Down for love.wav" WAVE
INDEX 01 00:00:00
TRACK 08 AUDIO
TITLE "How long can you go"
PERFORMER "Kenny Wayne Shepherd Band"
INDEX 00 04:08:31
FILE "08 - How long can you go.wav" WAVE
INDEX 01 00:00:00
TRACK 09 AUDIO
TITLE "Louisiana Rain"
PERFORMER "Kenny Wayne Shepherd Band"
INDEX 00 02:57:58
FILE "09 - Louisiana Rain.wav" WAVE
INDEX 01 00:00:00
TRACK 10 AUDIO
TITLE "Ride of your live"
PERFORMER "Kenny Wayne Shepherd Band"
INDEX 00 03:49:54
FILE "10 - Ride of your live.wav" WAVE
INDEX 01 00:00:00
TRACK 11 AUDIO
TITLE "Lay it on down (Acoustics Bonus Track)"
PERFORMER "Kenny Wayne Shepherd Band"
INDEX 00 03:54:39
FILE "11 - Lay it on down (Acoustics Bonus Track).wav" WAVE
INDEX 01 00:00:00
DR log
foobar2000 1.2.9 / Dynamic Range Meter 1.1.1
log date: 2017-08-15 19:37:22

--------------------------------------------------------------------------------
Analyzed: Kenny Wayne Shepherd Band / Lay It On Down
--------------------------------------------------------------------------------

DR Peak RMS Duration Track
--------------------------------------------------------------------------------
DR7 0.00 dB -8.01 dB 3:03 01-Baby got gone
DR7 0.00 dB -8.23 dB 5:18 02-Diamonds & Gold
DR7 0.00 dB -8.26 dB 4:54 03-Nothing but the night
DR5 0.00 dB -6.78 dB 4:15 04-Lay it on down
DR7 0.00 dB -7.81 dB 4:07 05-She's $$$
DR6 0.00 dB -8.66 dB 4:30 06-Hard lesson learned
DR7 0.00 dB -7.75 dB 4:10 07-Down for love
DR7 0.00 dB -7.66 dB 3:00 08-How long can you go
DR6 0.00 dB -8.94 dB 3:51 09-Louisiana Rain
DR7 0.00 dB -8.13 dB 4:01 10-Ride of your live
DR7 0.00 dB -9.22 dB 4:15 11-Lay it on down (Acoustics Bonus Track)
--------------------------------------------------------------------------------

Number of tracks: 11
Official DR value: DR7

Samplerate: 44100 Hz
Channels: 2
Bits per sample: 16
Bitrate: 934 kbps
Codec: FLAC
================================================================================
КЕННИ УЭЙН ШЕППАРД (род. 12 июня 1977, Шривпорт, штат Луизиана) — американский гитарист, певец, автор песен. Он сделал себе имя ещё подростком, сфокусировавшись на современном электрик-блюзе. Сумел выступить на одной сцене с такими иконами блюза, как B.B. King, Buddy Guy и продолжает выпускать альбомы и гастролировать уже более двух десятилетий.
 

Вложения

  • 19,7 KB Просмотры: 0
    Личеров 0
    Сидеров 0
    Файлов 28
    Объем 443,1 MB
Ваш e-mail не будет опубликован. Он потребуется для подтверждения Вашего поста.
Оформление текста Нажмите «Ввод», чтобы отправить ответ.