За сегодня опубликовано 19 новых материалов.
Инструкция новичку Путеводитель по форуму Прокси для Telegram Показать подсказки , это бомба!

Скачать Каникулы Гуфи / A Goofy Movie (1995) BDRip 1080p от HDReactor | D, P, A бесплатно через торрент

  • 90% материалов доступно к скачиванию после простой регистрации!
    Если же ты хочешь скачивать материалы без требования оставлять отзывы то получи группу "Новичок", 10 способов повышения описаны тут -> ссылка
  • К сожалению количество битых ссылок растет и мы уже не можем их оперативно восстанавливать поэтому просим помощи у каждого нашего пользователя.
    С сегодняшнего дня, за каждую восстановленную ссылку мы заплатим Вам.
    Подробнее тут -> ссылка
  • Перенесем твои заслуги с другого ресурса!
    Мы понимаем как сложно прокачивать аккаунты на форумах, вроде раскачал аккаунт, а тут появляется ресурс в 100 раз круче но тоже с системой прокачки и снова качать аккаунт...
    Предлагаем вам перенести Ваши заслуги на другом подобном ресурсе к нам.
    Подробности описаны тут -> ссылка
  • Вы можете получать по 2.5% с каждой покупки и продажи на маркете! Подробности в теме Партнёрская программа
Если Вы не хотите скачивать, Вы всегда можете посмотреть онлайн, просто нажмите кнопку ниже :

Открыть плеер

Torrent_Bot

Торрент-Бот
Бот форума
4 Окт 2016
125
17
20

Информация о фильме
Название: Каникулы Гуфи
Оригинальное название: A Goofy Movie
Год выпуска: 1995
Жанр:Мультфильм, мюзикл, мелодрама, комедия, приключения, семейный
Выпущено: США, Walt Disney Pictures
Режиссер: Кевин Лима
В ролях: Билл Фармер, Джейсон Мэрсден, Джим Каммингс, Келли Мартин, Роб Полсен, Уоллес Шон, Дженна Фон Ой, Фрэнк Уэлкер, Кевин Лима, Флоренс Стэнли, Джо Энн Уорли, Бриттани Элис Смит, Робин Ричардс, Джули Браун

О фильме:
Макс живет в современной среде среднего класса Америки пригородов. Он учится в школе, в которой учится она, одна и единственная по имени Роксана. Макс хочет выделиться, прославиться, как и все в этом счастливом возрасте. Он хочет, чтобы Роксана заметила его. И не просто заметила. Как он этого добивается, пусть дети узнают сами. Хорошая анимация, песни, музыка, танцы и множество смешных ситуаций - все сделано в лучших традициях молодежной комедии, решенной средствами мультипликации.




Продолжительность: 01:17:40
Перевод: Дублированный, профессиональный многоголосый, авторский
Субтитры: Русские, английские

Файл
Качество: BDRip (1080p)
Видео: MPEG-4 AVC, 9845 Кбит/с, 1920x1038, 23.976 кадр/с
Аудио #1: Русский (AC3, 2 ch, 192 Кбит/с) - Дублированный
Аудио #2: Русский (AC3, 2 ch, 192 Кбит/с) - Профессиональный многоголосый
Аудио #3: Русский (AC3, 2 ch, 192 Кбит/с) - Авторский одноголосый (П.Санаев)
Аудио #4: Английский (AC3, 2 ch, 192 Кбит/с) - Оригинал

МедиаИнфо
Формат : Matroska
Версия формата : Version 2
Размер файла : 5,75 Гбайт
Продолжительность : 1 ч. 17 м.
Общий поток : 10,6 Мбит/сек
Название фильма : ~V ad~
Дата кодирования : UTC 2019-05-10 04:17:33
Программа кодирования : mkvmerge v6.5.0 ('Isn't she lovely') built on Oct 20 2013 12:50:05
Библиотека кодирования : libebml v1.3.0 + libmatroska v1.4.1
Обложка : Yes
Attachments : cover.jpg

Видео
Идентификатор : 1
Формат : AVC
Формат/Информация : Advanced Video Codec
Профиль формата : [email protected]
Настройки формата : CABAC / 4 Ref Frames
Параметр CABAC формата : Да
Параметр RefFrames формата : 4 кадра
Идентификатор кодека : V_MPEG4/ISO/AVC
Продолжительность : 1 ч. 17 м.
Битрейт : 9845 Кбит/сек
Ширина : 1920 пикселей
Высота : 1038 пикселей
Соотношение сторон : 1,85:1
Режим частоты кадров : Постоянный
Частота кадров : 23,976 (24000/1001) кадра/сек
Цветовое пространство : YUV
Субдискретизация насыщенности : 4:2:0
Битовая глубина : 8 бит
Тип развёртки : Прогрессивная
Бит/(Пиксели*Кадры) : 0.206
Размер потока : 5,22 Гбайт (91%)
Заголовок : ~V~
Библиотека кодирования : x264 core 157 r2969 d4099dd
Настройки программы : cabac=1 / ref=4 / deblock=1:-2:-1 / analyse=0x3:0x133 / me=umh / subme=11 / psy=1 / psy_rd=1.00:0.00 / mixed_ref=1 / me_range=32 / chroma_me=1 / trellis=2 / 8x8dct=1 / cqm=0 / deadzone=21,11 / fast_pskip=0 / chroma_qp_offset=-2 / threads=12 / lookahead_threads=1 / sliced_threads=0 / nr=0 / decimate=0 / interlaced=0 / bluray_compat=0 / constrained_intra=0 / bframes=8 / b_pyramid=2 / b_adapt=2 / b_bias=0 / direct=3 / weightb=1 / open_gop=0 / weightp=2 / keyint=240 / keyint_min=23 / scenecut=40 / intra_refresh=0 / rc=2pass / mbtree=0 / bitrate=9845 / ratetol=1.0 / qcomp=0.65 / qpmin=0 / qpmax=69 / qpstep=4 / cplxblur=20.0 / qblur=0.5 / ip_ratio=1.30 / pb_ratio=1.30 / aq=3:0.80
Язык : Английский
Default : Да
Forced : Нет

Аудио #1
Идентификатор : 2
Формат : AC-3
Формат/Информация : Audio Coding 3
Коммерческое название : Dolby Digital
Идентификатор кодека : A_AC3
Продолжительность : 1 ч. 17 м.
Вид битрейта : Постоянный
Битрейт : 192 Кбит/сек
Каналы : 2 канала
Channel layout : L R
Частота : 48,0 КГц
Частота кадров : 31,250 кадров/сек (1536 SPF)
Битовая глубина : 16 бит
Метод сжатия : С потерями
Размер потока : 107 Мбайт (2%)
Заголовок : Dub
Язык : Русский
Service Kind : Complete Main
Default : Да
Forced : Нет

Аудио #2
Идентификатор : 3
Формат : AC-3
Формат/Информация : Audio Coding 3
Коммерческое название : Dolby Digital
Идентификатор кодека : A_AC3
Продолжительность : 1 ч. 17 м.
Вид битрейта : Постоянный
Битрейт : 192 Кбит/сек
Каналы : 2 канала
Channel layout : L R
Частота : 48,0 КГц
Частота кадров : 31,250 кадров/сек (1536 SPF)
Битовая глубина : 16 бит
Метод сжатия : С потерями
Размер потока : 107 Мбайт (2%)
Заголовок : MVO
Язык : Русский
Service Kind : Complete Main
Default : Нет
Forced : Нет

Аудио #3
Идентификатор : 4
Формат : AC-3
Формат/Информация : Audio Coding 3
Коммерческое название : Dolby Digital
Идентификатор кодека : A_AC3
Продолжительность : 1 ч. 17 м.
Вид битрейта : Постоянный
Битрейт : 192 Кбит/сек
Каналы : 2 канала
Channel layout : L R
Частота : 48,0 КГц
Частота кадров : 31,250 кадров/сек (1536 SPF)
Битовая глубина : 16 бит
Метод сжатия : С потерями
Размер потока : 107 Мбайт (2%)
Заголовок : AVO [П.Санаев]
Язык : Русский
Service Kind : Complete Main
Default : Нет
Forced : Нет

Аудио #4
Идентификатор : 5
Формат : AC-3
Формат/Информация : Audio Coding 3
Коммерческое название : Dolby Digital
Идентификатор кодека : A_AC3
Продолжительность : 1 ч. 17 м.
Вид битрейта : Постоянный
Битрейт : 192 Кбит/сек
Каналы : 2 канала
Channel layout : L R
Частота : 48,0 КГц
Частота кадров : 31,250 кадров/сек (1536 SPF)
Битовая глубина : 16 бит
Метод сжатия : С потерями
Размер потока : 107 Мбайт (2%)
Язык : Английский
Service Kind : Complete Main
Default : Нет
Forced : Нет

Текст #1
Идентификатор : 6
Формат : UTF-8
Идентификатор кодека : S_TEXT/UTF8
Идентификатор кодека/Информация : UTF-8 Plain Text
Язык : Русский
Default : Нет
Forced : Нет

Текст #2
Идентификатор : 7
Формат : UTF-8
Идентификатор кодека : S_TEXT/UTF8
Идентификатор кодека/Информация : UTF-8 Plain Text
Язык : Английский
Default : Нет
Forced : Нет

Меню
00:00:00.000 : en:Chapter 1 / en:Chapter 1
00:05:27.243 : en:Chapter 2
00:14:16.772 : en:Chapter 3
00:20:25.140 : en:Chapter 4
00:27:32.567 : en:Chapter 5
00:37:58.818 : en:Chapter 6
00:51:11.549 : en:Chapter 7
00:57:42.375 : en:Chapter 8
01:07:03.561 : en:Chapter 9
01:12:18.876 : en:Chapter 10
01:17:40.656 : en:Chapter 11



Сэмпл
Релиз от:
 

Вложения

  • 15,8 KB Просмотры: 0
    Личеров 0
    Сидеров 0
    Файлов 1
    Объем 5,8 GB
Ваш e-mail не будет опубликован. Он потребуется для подтверждения Вашего поста.
Оформление текста Нажмите «Ввод», чтобы отправить ответ.

Привет!

Мы группа людей которые решили помочь другим в решении их проблем, а так же пользователям с поиском самых свежих и качественных инфопродуктов. За 4 с небольшим месяца мы создали этот форум на который заходят ежедневно тысячи человек и посещаемость постоянно растёт. Мы создали панель лицензирования для защиты PHP скриптов от воровства и SEO панель для мониторинга наших сайтов и выбора верной стратегии их развития. Мы надеемся что то что мы создали пригодится Вам и возможно Вы поможете нам развиваться и совершенствоваться вместе с Вами.

Статистика форума

Темы
347.715
Сообщения
373.703
Пользователи
29.027
Новый пользователь
Vi-ezho

Приложения форума для iOS и Android


У ркн там нет власти ;)