За сегодня опубликовано 3 новых материалов.
Инструкция новичку Путеводитель по форуму Прокси для Telegram Показать подсказки , это бомба!

Скачать Я заберу твоего мертвеца / I'll Take Your Dead (2018) WEB-DLRip от Portablius | L1 бесплатно через торрент

  • Получай до 480 рублей за каждого приглашенного пользователя!
    представляем Вам очередное расширение партнерской программы, подробности описаны тут -> ссылка
  • 90% материалов доступно к скачиванию после простой регистрации!
    Если же ты хочешь скачивать материалы без требования оставлять отзывы то получи группу "Новичок", 10 способов повышения описаны тут -> ссылка
  • К сожалению количество битых ссылок растет и мы уже не можем их оперативно восстанавливать поэтому просим помощи у каждого нашего пользователя.
    С сегодняшнего дня, за каждую восстановленную ссылку мы заплатим Вам.
    Подробнее тут -> ссылка
  • Перенесем твои заслуги с другого ресурса!
    Мы понимаем как сложно прокачивать аккаунты на форумах, вроде раскачал аккаунт, а тут появляется ресурс в 100 раз круче но тоже с системой прокачки и снова качать аккаунт...
    Предлагаем вам перенести Ваши заслуги на другом подобном ресурсе к нам.
    Подробности описаны тут -> ссылка
  • Вы можете получать по 2.5% с каждой покупки и продажи на маркете! Подробности в теме Партнёрская программа
Если Вы не хотите скачивать, Вы всегда можете посмотреть онлайн, просто нажмите кнопку ниже :

Открыть плеер

Torrent_Bot

Торрент-Бот
Бот форума
4 Окт 2016
125
31
20



Информация о фильме
Название: Я заберу твоего мертвеца
Оригинальное название: I'll Take Your Dead
Год выхода: 2018
Жанр: Криминал, ужасы
Режиссер: Чад Арчибальд
В ролях: Эйдан Дивайн, Ава Престон, Джесс Салгейру, Брэндон МакНайт, Эри Миллен, Майкл Ревентан, Раффаэль Бреретон, Адам Кристи, Тавари Дэниел-Симмс, Мо Жюди-Ламур

О фильме: Фермер Уильям с дочерью Глорией живёт недалеко от города. Так вышло, что его дом стал местом, куда бандиты привозят трупы, и задача Уильяма - заставить тела исчезнуть. Глория уже привыкла к папиному занятию и даже считает, что души погибших теперь населяют их дом. Но однажды установленный порядок нарушается неожиданным событием - одна из привезённых на утилизацию оказывается ещё живой.



Страна: Канада
Студия: Black Fawn Films, Breakthrough Entertainment
Продолжительность: 01:25:45
Перевод: Любительский (одноголосый, закадровый) | Хихидок
Субтитры: нет

Файл
Кодек: XviD
Качество: WEB-DLRip
Видео: 720x304 (2.37:1), 23.976 fps, XviD build 73 ~1071 kbps avg, 0.20 bit/pixel
Звук: 48 kHz, MPEG Layer 3, 2 ch, ~128.00 kbps avg

MediaInfo
General
Complete name : Ya.zaberu.tvoego.mertvetsa.2018.WEB-DLRip.Portablius.avi
Format : AVI
Format/Info : Audio Video Interleave
File size : 742 MiB
Duration : 1 h 25 min
Overall bit rate : 1 209 kb/s
Writing application : VirtualDubMod 1.5.10.3 | www.virtualdub-fr.org || (build 2550/release)
Writing library : VirtualDubMod build 2550/release

Video
ID : 0
Format : MPEG-4 Visual
Format profile : Advanced [email protected]
Format settings : BVOP1 / Custom Matrix
Format settings, BVOP : 1
Format settings, QPel : No
Format settings, GMC : No warppoints
Format settings, Matrix : Custom
Codec ID : XVID
Codec ID/Hint : XviD
Duration : 1 h 25 min
Bit rate : 1 072 kb/s
Width : 720 pixels
Height : 304 pixels
Display aspect ratio : 2.35:1
Frame rate : 23.976 (24000/1001) FPS
Color space : YUV
Chroma subsampling : 4:2:0
Bit depth : 8 bits
Scan type : Progressive
Compression mode : Lossy
Bits/(Pixel*Frame) : 0.204
Stream size : 657 MiB (89%)
Writing library : XviD 73

Audio
ID : 1
Format : MPEG Audio
Format version : Version 1
Format profile : Layer 3
Codec ID : 55
Codec ID/Hint : MP3
Duration : 1 h 25 min
Bit rate mode : Constant
Bit rate : 128 kb/s
Channel(s) : 2 channels
Sampling rate : 48.0 kHz
Frame rate : 41.667 FPS (1152 SPF)
Compression mode : Lossy
Stream size : 78.5 MiB (11%)
Alignment : Aligned on interleaves
Interleave, duration : 42 ms (1.00 video frame)
Interleave, preload duratio : 504 ms
Writing library : LAME3.99r
Encoding settings : -m s -V 4 -q 2 -lowpass 17 -b 128
Скриншоты
 

Вложения

  • 15,4 KB Просмотры: 0
    Личеров 0
    Сидеров 0
    Файлов 1
    Объем 741,7 MB
Ваш e-mail не будет опубликован. Он потребуется для подтверждения Вашего поста.
Оформление текста Нажмите «Ввод», чтобы отправить ответ.