За сегодня опубликовано 18 новых материалов.
Инструкция новичку Путеводитель по форуму Прокси для Telegram Показать подсказки , это бомба!

Скачать Я заберу твоего мертвеца / I'll Take Your Dead (2018) WEB-DLRip-AVC | HDRezka Studio бесплатно через торрент

  • Получай до 480 рублей за каждого приглашенного пользователя!
    представляем Вам очередное расширение партнерской программы, подробности описаны тут -> ссылка
  • 90% материалов доступно к скачиванию после простой регистрации!
    Если же ты хочешь скачивать материалы без требования оставлять отзывы то получи группу "Новичок", 10 способов повышения описаны тут -> ссылка
  • К сожалению количество битых ссылок растет и мы уже не можем их оперативно восстанавливать поэтому просим помощи у каждого нашего пользователя.
    С сегодняшнего дня, за каждую восстановленную ссылку мы заплатим Вам.
    Подробнее тут -> ссылка
  • Перенесем твои заслуги с другого ресурса!
    Мы понимаем как сложно прокачивать аккаунты на форумах, вроде раскачал аккаунт, а тут появляется ресурс в 100 раз круче но тоже с системой прокачки и снова качать аккаунт...
    Предлагаем вам перенести Ваши заслуги на другом подобном ресурсе к нам.
    Подробности описаны тут -> ссылка
  • Вы можете получать по 2.5% с каждой покупки и продажи на маркете! Подробности в теме Партнёрская программа
Если Вы не хотите скачивать, Вы всегда можете посмотреть онлайн, просто нажмите кнопку ниже :

Открыть плеер

Torrent_Bot

Торрент-Бот
Бот форума
4 Окт 2016
125
32
20



Информация о фильме
Название: Я заберу твоего мертвеца
Оригинальное название: I'll Take Your Dead
Год выхода: 2018
Жанр: Криминал, ужасы
Режиссер: Чад Арчибальд
В ролях: Эйдан Дивайн, Ава Престон, Джесс Салгейру, Брэндон МакНайт, Эри Миллен, Майкл Ревентан, Раффаэль Бреретон, Адам Кристи, Тавари Дэниел-Симмс, Мо Жюди-Ламур

О фильме:
Фермер Уильям с дочерью Глорией живёт недалеко от города. Так вышло, что его дом стал местом, куда бандиты привозят трупы, и задача Уильяма - заставить тела исчезнуть. Глория уже привыкла к папиному занятию и даже считает, что души погибших теперь населяют их дом. Но однажды установленный порядок нарушается неожиданным событием - одна из привезённых на утилизацию оказывается ещё живой.



Страна: Канада
Студия: Black Fawn Films, Breakthrough Entertainment
Продолжительность: 01:25:45
Перевод: Профессиональный (многоголосый, закадровый) | HDRezka Studio

Файл
Формат: Matroska
Качество: WEB-DLRip-AVC
Видео: 1020x426 at 23.976 fps, x264, ~2229 kbps
Аудио: AC3, 2 ch, ~192 kbps - | Русский | -
Субтитры: Нет

***Релиз от:-=DoMiNo=-

M/I
General
Unique ID : 26437074412452199351075914813551568026 (0x13E398673D0A2F399A29D43F9B6A649A)
Complete name : Я заберу твоего мертвеца.(2018).WEB-DLRip-AVC.[-=DoMiNo=-].mkv
Format : Matroska
Format version : Version 4
File size : 1.45 GiB
Duration : 1 h 25 min
Overall bit rate : 2 423 kb/s
Movie name : Я заберу твоего мертвеца
Deion : Фермер Уильям с дочерью Глорией живёт недалеко от города. Так вышло, что его дом стал местом, куда бандиты привозят трупы, и задача Уильяма - заставить тела исчезнуть. Глория уже привыкла к папиному занятию и даже считает, что души погибших теперь населяют их дом. Но однажды установленный порядок нарушается неожиданным событием - одна из привезённых на утилизацию оказывается ещё живой.
Attachments : poster.jpg
ACTORS : Aidan Devine, Ava Preston, Jess Salgueiro, Brandon McKnight, Ari Millen, Michael Reventar, Raffaele Brereton, Adam Christie, Tavaree Daniel-Simms, Moe Jeudy-Lamour
COUNTRY : Canada
DATE : 2018-10-01
DIRECTOR : Chad Archibald
GENRE : ужасы, криминал, драма
ORIGINAL_TITLE : I'll Take Your Dead
PRODUCER : Chad Archibald, Christopher Giroux, Cody Calahan
PUBLISHER : Black Fawn Films, Breakthrough Entertainment
RATING : 6.30

Video
ID : 1
Format : AVC
Format/Info : Advanced Video Codec
Format profile : [email protected]
Format settings : CABAC / 10 Ref Frames
Format settings, CABAC : Yes
Format settings, Reference : 10 frames
Codec ID : V_MPEG4/ISO/AVC
Duration : 1 h 25 min
Bit rate : 2 229 kb/s
Width : 1 020 pixels
Height : 426 pixels
Display aspect ratio : 2.40:1
Frame rate mode : Constant
Frame rate : 23.976 (24000/1001) FPS
Color space : YUV
Chroma subsampling : 4:2:0
Bit depth : 8 bits
Scan type : Progressive
Bits/(Pixel*Frame) : 0.214
Stream size : 1.31 GiB (90%)
Title : RIP_BY_-=DoMiNo=-
Writing library : x264 core 157 r2969 d4099dd
Encoding settings : cabac=1 / ref=10 / deblock=1:-2:-2 / analyse=0x3:0x133 / me=umh / subme=11 / psy=1 / psy_rd=1.00:0.00 / mixed_ref=1 / me_range=32 / chroma_me=1 / trellis=2 / 8x8dct=1 / cqm=0 / deadzone=21,11 / fast_pskip=0 / chroma_qp_offset=-2 / threads=6 / lookahead_threads=1 / sliced_threads=0 / nr=0 / decimate=0 / interlaced=0 / bluray_compat=0 / constrained_intra=0 / bframes=10 / b_pyramid=2 / b_adapt=2 / b_bias=0 / direct=3 / weightb=1 / open_gop=0 / weightp=2 / keyint=250 / keyint_min=23 / scenecut=40 / intra_refresh=0 / rc=2pass / mbtree=0 / bitrate=2229 / ratetol=1.0 / qcomp=0.60 / qpmin=0 / qpmax=69 / qpstep=4 / cplxblur=20.0 / qblur=0.5 / ip_ratio=1.40 / pb_ratio=1.30 / aq=3:1.00
Language : English
Default : Yes
Forced : No
Color range : Limited
Color primaries : BT.709
Transfer characteristics : BT.709
Matrix coefficients : BT.709

Audio
ID : 2
Format : AC-3
Format/Info : Audio Coding 3
Commercial name : Dolby Digital
Codec ID : A_AC3
Duration : 1 h 25 min
Bit rate mode : Constant
Bit rate : 192 kb/s
Channel(s) : 2 channels
Channel layout : L R
Sampling rate : 48.0 kHz
Frame rate : 31.250 FPS (1536 SPF)
Bit depth : 16 bits
Compression mode : Lossy
Stream size : 118 MiB (8%)
Title : MVO HDRezka Studio
Language : Russian
Service kind : Complete Main
Default : Yes
Forced : No

Menu
00:00:00.000 : :1
00:09:18.350 : :2
00:19:47.729 : :3
00:30:03.552 : :4
00:39:37.416 : :5
00:50:29.109 : :6
00:58:41.810 : :7
01:09:52.729 : :8
01:19:40.441 : :9
01:21:51.028 : :10
Скриншоты
 

Вложения

  • 15,7 KB Просмотры: 0
    Личеров 0
    Сидеров 0
    Файлов 1
    Объем 1,5 GB
Ваш e-mail не будет опубликован. Он потребуется для подтверждения Вашего поста.
Оформление текста Нажмите «Ввод», чтобы отправить ответ.