За сегодня опубликовано 23 новых материалов.
Инструкция новичку Путеводитель по форуму Прокси для Telegram Показать подсказки , это бомба!

Скачать Иоанна - женщина на папском престоле / Die Päpstin (2009) BDRip 1080p | D бесплатно через торрент

  • Получай до 480 рублей за каждого приглашенного пользователя!
    представляем Вам очередное расширение партнерской программы, подробности описаны тут -> ссылка
  • 90% материалов доступно к скачиванию после простой регистрации!
    Если же ты хочешь скачивать материалы без требования оставлять отзывы то получи группу "Новичок", 10 способов повышения описаны тут -> ссылка
  • К сожалению количество битых ссылок растет и мы уже не можем их оперативно восстанавливать поэтому просим помощи у каждого нашего пользователя.
    С сегодняшнего дня, за каждую восстановленную ссылку мы заплатим Вам.
    Подробнее тут -> ссылка
  • Перенесем твои заслуги с другого ресурса!
    Мы понимаем как сложно прокачивать аккаунты на форумах, вроде раскачал аккаунт, а тут появляется ресурс в 100 раз круче но тоже с системой прокачки и снова качать аккаунт...
    Предлагаем вам перенести Ваши заслуги на другом подобном ресурсе к нам.
    Подробности описаны тут -> ссылка
  • Вы можете получать по 2.5% с каждой покупки и продажи на маркете! Подробности в теме Партнёрская программа
Если Вы не хотите скачивать, Вы всегда можете посмотреть онлайн, просто нажмите кнопку ниже :

Открыть плеер

Torrent_Bot

Торрент-Бот
Бот форума
4 Окт 2016
125
32
20


Год выпуска: 2009
Страна: Германия, Великобритания, Италия, Испания
Жанр: драма, мелодрама
Продолжительность: 02:20:47
Перевод: дублированный
Субтитры: Russian, Ukrainian

Режиссёр: Зёнке Вортманн

В ролях: Йоханна Вокалек, Дэвид Уэнэм, Джон Гудмен, Иэн Глен, Эдвард Петербридж, Анатоль Таубман, Лотти Флэк, Тайгерлили Хатчинсон, Йордис Трибель, Оливер Коттон, Николас Вудесон, Сюзэнн Бертиш, Ричард ван Вейден, Бранко Томович, Ленн Кудрявицкий, Ян Гелдер, Геральд Александр Хельд, Сандро Ломанн, Кристиан Редль, Клаудия Михельсен, Марк Бишофф, Том Штраусс, Альберто Кракко, Джорджо Лупано, Мариан Медер, Оливер Негеле, Катрин Поллитт, Рауль Семмлер, Хендрик Арнст

Описание: В тайных хранилищах Ватикана сокрыта история запрещённой страсти и интриги, державшаяся в секрете католической церковью более тысячи лет. Хотя официально Ватикан не признал того факта, что два года на святом престоле пребывала женщина, легенды об этом бытуют до сих пор. Год 814 от Рождества Христова. 28 января умирает Карл Великий, в тот же день рождается Иоанна — страстная натура, умевшая любить, рисковать и побеждать…



Файл
Качество: BDRip 1080p
Формат: MKV
Видео: 1920x816 at 23.976 fps, [email protected], 2pass, ~14000 kbps avg
Аудио #1: Russian: 48 kHz, DTS, 3/2 (L,C,R,l,r) + LFE ch, ~1536.00 kbps avg |Дубляж|
Аудио #2: English: 48 kHz, DTS, 3/2 (L,C,R,l,r) + LFE ch, ~1536.00 kbps avg

Source~Encode



mInfo

Формат : Matroska
Версия формата : Version 4 / Version 2
Размер файла : 16,7 Гбайт
Продолжительность : 2 ч. 20 м.
Общий поток : 17,0 Мбит/сек
Название фильма : Die Päpstin (2009) - Release for HDCLUB by Skazhutin
Дата кодирования : UTC 2013-02-09 10:07:26
Программа кодирования : mkvmerge v6.0.0 ('Coming Up For Air') built on Jan 20 2013 09:52:00
Библиотека кодирования : libebml v1.3.0 + libmatroska v1.4.0
Attachment : Yes / Yes

Видео
Идентификатор : 1
Формат : AVC
Формат/Информация : Advanced Video Codec
Профиль формата : [email protected]
Параметр CABAC формата : Да
Параметр ReFrames формата : 5 кадров
Идентификатор кодека : V_MPEG4/ISO/AVC
Продолжительность : 2 ч. 20 м.
Битрейт : 14,0 Мбит/сек
Ширина : 1920 пикселей
Высота : 816 пикселей
Соотношение сторон : 2,35:1
Частота кадров : 23,976 кадра/сек
Цветовое пространство : YUV
Субдискретизация насыщенности : 4:2:0
Битовая глубина : 8 бит
Тип развёртки : Прогрессивная
Бит/(Пиксели*Кадры) : 0.373
Размер потока : 13,4 Гбайт (80%)
Заголовок : Release for HDCLUB
Библиотека кодирования : x264 core 129
Настройки программы : cabac=1 / ref=5 / deblock=1:-3:-3 / analyse=0x3:0x113 / me=umh / subme=11 / psy=1 / fade_compensate=0.00 / psy_rd=0.95:0.00 / mixed_ref=1 / me_range=48 / chroma_me=1 / trellis=2 / 8x8dct=1 / cqm=0 / deadzone=21,11 / fast_pskip=0 / chroma_qp_offset=-2 / threads=12 / lookahead_threads=2 / sliced_threads=0 / nr=0 / decimate=0 / interlaced=0 / bluray_compat=0 / constrained_intra=0 / bframes=10 / b_pyramid=2 / b_adapt=2 / b_bias=0 / direct=3 / weightb=1 / open_gop=0 / weightp=2 / keyint=250 / keyint_min=23 / scenecut=40 / intra_refresh=0 / rc_lookahead=40 / rc=2pass / mbtree=0 / bitrate=14000 / ratetol=1.0 / qcomp=0.60 / qpmin=0 / qpmax=69 / qpstep=4 / cplxblur=20.0 / qblur=0.5 / vbv_maxrate=50000 / vbv_bufsize=62500 / nal_hrd=none / ip_ratio=1.40 / pb_ratio=1.30 / aq=1:0.75
Язык : English
Коэффициенты матрицы : BT.709-5, BT.1361, IEC 61966-2-4 709, SMPTE RP177

Аудио #1
Идентификатор : 2
Формат : DTS
Формат/Информация : Digital Theater Systems
Идентификатор кодека : A_DTS
Продолжительность : 2 ч. 20 м.
Вид битрейта : Постоянный
Битрейт : 1510 Кбит/сек
Каналы : 6 каналов
Расположение каналов : Front: L C R, Side: L R, LFE
Частота : 48,0 КГц
Битовая глубина : 24 бит
Метод сжатия : С потерями
Размер потока : 1,48 Гбайт (9%)
Заголовок : DTS 5.1 @ 1536 kbps - Dub
Язык : Russian

Аудио #2
Идентификатор : 3
Формат : DTS
Формат/Информация : Digital Theater Systems
Идентификатор кодека : A_DTS
Продолжительность : 2 ч. 20 м.
Вид битрейта : Постоянный
Битрейт : 1510 Кбит/сек
Каналы : 6 каналов
Расположение каналов : Front: L C R, Side: L R, LFE
Частота : 48,0 КГц
Битовая глубина : 24 бит
Метод сжатия : С потерями
Размер потока : 1,48 Гбайт (9%)
Заголовок : DTS 5.1 @ 1536 kbps
Язык : English

Текст #1
Идентификатор : 4
Формат : UTF-8
Идентификатор кодека : S_TEXT/UTF8
Идентификатор кодека/Информация : UTF-8 Plain Text
Язык : Russian

Текст #2
Идентификатор : 5
Формат : UTF-8
Идентификатор кодека : S_TEXT/UTF8
Идентификатор кодека/Информация : UTF-8 Plain Text
Язык : Ukrainian

Меню
00:00:00.000 : en:Начало
00:04:51.541 : en:Иоанна хочет учиться
00:10:52.235 : en:Бог тебя услышит
00:15:42.024 : en:Чтение
00:20:32.731 : en:Дар Эскулапа
00:24:08.572 : en:Иоанн должен уйти
00:28:42.304 : en:Иоанна идет своим путем
00:30:04.594 : en:Два новых ученика
00:38:20.215 : en:Молоко святой девы
00:43:34.570 : en:Потрясение
00:47:04.030 : en:Согласие на брак
00:53:02.471 : en:Иоанна выжила
00:58:46.314 : en:Монастырь на Фульде
01:03:43.486 : en:Помощь прокаженным
01:07:53.152 : en:Борьба за власть
01:09:09.812 : en:Бог вновь соединил нас
01:10:04.242 : en:Самое ценное божье орудие
01:13:39.290 : en:Меня зовут Иоанна
01:19:21.423 : en:Паломничество в Рим
01:22:56.555 : en:Моча папы
01:29:35.328 : en:Папа опять здоров
01:34:48.600 : en:Поход на Рим
01:37:30.219 : en:Знак Божий
01:44:13.122 : en:Спаситель Рима
01:50:55.148 : en:Папа мертв
01:55:53.405 : en:Да здравствует Папа Иоанн
01:59:59.984 : en:Любимый народом Папа
02:04:34.509 : en:Заговор
02:05:48.624 : en:От судьбы не уйти
02:14:24.890 : en:Титры

Релиз: by Skazhutin
 

Вложения

  • 42,8 KB Просмотры: 0
    Личеров 0
    Сидеров 0
    Файлов 1
    Объем 16,7 GB
Ваш e-mail не будет опубликован. Он потребуется для подтверждения Вашего поста.
Оформление текста Нажмите «Ввод», чтобы отправить ответ.