За сегодня опубликовано 10 новых материалов.
Инструкция новичку Путеводитель по форуму Прокси для Telegram Показать подсказки , это бомба!

Скачать Интервью с Богом / An Interview with God (2018) BDRemux 1080p от селезень | iTunes бесплатно через торрент

  • Получай до 480 рублей за каждого приглашенного пользователя!
    представляем Вам очередное расширение партнерской программы, подробности описаны тут -> ссылка
  • 90% материалов доступно к скачиванию после простой регистрации!
    Если же ты хочешь скачивать материалы без требования оставлять отзывы то получи группу "Новичок", 10 способов повышения описаны тут -> ссылка
  • К сожалению количество битых ссылок растет и мы уже не можем их оперативно восстанавливать поэтому просим помощи у каждого нашего пользователя.
    С сегодняшнего дня, за каждую восстановленную ссылку мы заплатим Вам.
    Подробнее тут -> ссылка
  • Перенесем твои заслуги с другого ресурса!
    Мы понимаем как сложно прокачивать аккаунты на форумах, вроде раскачал аккаунт, а тут появляется ресурс в 100 раз круче но тоже с системой прокачки и снова качать аккаунт...
    Предлагаем вам перенести Ваши заслуги на другом подобном ресурсе к нам.
    Подробности описаны тут -> ссылка
  • Вы можете получать по 2.5% с каждой покупки и продажи на маркете! Подробности в теме Партнёрская программа
Если Вы не хотите скачивать, Вы всегда можете посмотреть онлайн, просто нажмите кнопку ниже :

Открыть плеер

Torrent_Bot

Торрент-Бот
Бот форума
4 Окт 2016
125
32
20


Информация о фильме
Название: Интервью с Богом
Оригинальное название: An Interview with God
Год выхода: 2018
Жанр: Драма, детектив
Режиссер: Перри Лэнг
В ролях: Брентон Туэйтс, Дэвид Стрэтэйрн, Яэль Гробглас, Хилл Харпер, Чарлби Дин Крик, Бобби Ди Чикко, Миган Кимберли Смит



О фильме: Сюжет разворачивается вокруг перспективного журналиста Пола Ашера, который вернулся домой из Афганистана, где он работал военным корреспондентом. Возвращение главного героя домой приводит к проблемам личного характера, среди которых неудачный брак, отсутствие веры и последствия работы в зоне боевых действий. Стараясь справиться со своими неурядицами, Пол не забывает присматривать за другом, который вернулся из Афганистана вместе с ним и нуждается в помощи. Рутинная жизнь журналиста кардинально меняется, когда у него появляется шанс взять интервью у человека, называющего себя Богом.

Страна: США
Студия: Astute Films, Big Indie Pictures, Giving Films
Продолжительность: 01:36:45
Перевод: Дублированный | iTunes

Качество: BDRemux 1080p
Видео: MPEG-4 AVC, 1920x1080, 18.1 Mbit/s, 23.976 fps
Звук:
Аудио #01: 48 kHz, AC3, 5.1, 384 Kbps | iTunes | RUS |
Аудио #02: 48 kHz, DTS-HD MA, 5.1, 1901 Kbps | Оригинал | ENG |



MI
General
Unique ID : 300405216921513227481897709851195847069 (0xE1FFF0B5A93E7752D933DAE2ABA9B19D)
Complete name : D:Video111An.Interview.with.God.2018.BDREMUX.1080p.seleZen.mkv
Format : Matroska
Format version : Version 4
File size : 13.8 GiB
Duration : 1 h 36 min
Overall bit rate mode : Variable
Overall bit rate : 20.4 Mb/s
Movie name : An Interview with God 2018 from селезень
Encoded date : UTC 2019-04-26 02:46:13
Writing application : mkvmerge v32.0.0 ('Astral Progressions') 64-bit
Writing library : libebml v1.3.7 + libmatroska v1.5.0

Video
ID : 1
Format : AVC
Format/Info : Advanced Video Codec
Format profile : [email protected]
Format settings : CABAC / 2 Ref Frames
Format settings, CABAC : Yes
Format settings, ReFrames : 2 frames
Codec ID : V_MPEG4/ISO/AVC
Duration : 1 h 36 min
Bit rate mode : Variable
Bit rate : 18.1 Mb/s
Maximum bit rate : 35.2 Mb/s
Width : 1 920 pixels
Height : 1 080 pixels
Display aspect ratio : 16:9
Frame rate mode : Constant
Frame rate : 23.976 (24000/1001) FPS
Color space : YUV
Chroma subsampling : 4:2:0
Bit depth : 8 bits
Scan type : Progressive
Bits/(Pixel*Frame) : 0.364
Stream size : 12.2 GiB (89%)
Language : English
Default : Yes
Forced : No

Audio #1
ID : 2
Format : AC-3
Format/Info : Audio Coding 3
Commercial name : Dolby Digital
Codec ID : A_AC3
Duration : 1 h 36 min
Bit rate mode : Constant
Bit rate : 384 kb/s
Channel(s) : 6 channels
Channel layout : L R C LFE Ls Rs
Sampling rate : 48.0 kHz
Frame rate : 31.250 FPS (1536 SPF)
Bit depth : 16 bits
Compression mode : Lossy
Stream size : 266 MiB (2%)
Title : iTunes
Language : Russian
Service kind : Complete Main
Default : Yes
Forced : Yes

Audio #2
ID : 3
Format : DTS XLL
Format/Info : Digital Theater Systems
Commercial name : DTS-HD Master Audio
Codec ID : A_DTS
Duration : 1 h 36 min
Bit rate mode : Variable
Bit rate : 1 901 kb/s
Channel(s) : 6 channels
Channel layout : C L R Ls Rs LFE
Sampling rate : 48.0 kHz
Frame rate : 93.750 FPS (512 SPF)
Bit depth : 16 bits
Compression mode : Lossless
Stream size : 1.28 GiB (9%)
Title : Original
Language : English
Default : No
Forced : No

Menu
00:00:00.000 : en:Chapter 01
00:07:24.319 : en:Chapter 02
00:16:10.344 : en:Chapter 03
00:26:34.051 : en:Chapter 04
00:34:11.800 : en:Chapter 05
00:40:41.606 : en:Chapter 06
00:47:49.992 : en:Chapter 07
00:55:50.931 : en:Chapter 08
01:02:33.249 : en:Chapter 09
01:10:35.189 : en:Chapter 10
01:19:47.032 : en:Chapter 11
01:27:28.577 : en:Chapter 12

Релиз от:

 

Вложения

  • 138,8 KB Просмотры: 0
    Личеров 0
    Сидеров 0
    Файлов 1
    Объем 13,8 GB
Ваш e-mail не будет опубликован. Он потребуется для подтверждения Вашего поста.
Оформление текста Нажмите «Ввод», чтобы отправить ответ.