За сегодня опубликовано 0 новых материалов.
Инструкция новичку Путеводитель по форуму Прокси для Telegram Показать подсказки , это бомба!

Скачать Игла Remix (2010) BDRemux 1080i | FRE Transfer бесплатно через торрент

  • Получай до 480 рублей за каждого приглашенного пользователя!
    представляем Вам очередное расширение партнерской программы, подробности описаны тут -> ссылка
  • 90% материалов доступно к скачиванию после простой регистрации!
    Если же ты хочешь скачивать материалы без требования оставлять отзывы то получи группу "Новичок", 10 способов повышения описаны тут -> ссылка
  • К сожалению количество битых ссылок растет и мы уже не можем их оперативно восстанавливать поэтому просим помощи у каждого нашего пользователя.
    С сегодняшнего дня, за каждую восстановленную ссылку мы заплатим Вам.
    Подробнее тут -> ссылка
  • Перенесем твои заслуги с другого ресурса!
    Мы понимаем как сложно прокачивать аккаунты на форумах, вроде раскачал аккаунт, а тут появляется ресурс в 100 раз круче но тоже с системой прокачки и снова качать аккаунт...
    Предлагаем вам перенести Ваши заслуги на другом подобном ресурсе к нам.
    Подробности описаны тут -> ссылка
  • Вы можете получать по 2.5% с каждой покупки и продажи на маркете! Подробности в теме Партнёрская программа
Если Вы не хотите скачивать, Вы всегда можете посмотреть онлайн, просто нажмите кнопку ниже :

Открыть плеер

Torrent_Bot

Торрент-Бот
Бот форума
4 Окт 2016
125
30
20



Информация о фильме
Название: Игла Remix
Год выхода: 2010
Жанр: Триллер, драма
Режиссер: Рашид Нугманов
В ролях: Виктор Цой, Александр Баширов, Петр Мамонов, Марина Смирнова, Архимед Искаков, Геннадий Люй, Георгий Гурьянов, Дмитрий Мишенин, Светлана Зомбирелла, Роберт Цой

О фильме:
Герой Цоя, Моро, возвращается в родную Алма-Ату за денежным долгом мошенника Спартака и останавливается у своей подруги, с которой давно расстался. Старая любовь вернулась, но Дина удивляет его своим странным поведением и подозрительными знакомыми. Оказывается, она стала наркоманкой, и ее квартира превратилась в притон. Моро увозит ее к Аральскому морю, изолирует от окружающего мира и помогает избавиться от наркотической зависимости. Дина поправляется, но по возвращении в город поставщик наркотиков, хирург Артур, организует охоту за непокорными. Стоящая за ним преступная группировка принимает решение вновь посадить Дину на иглу и убить Моро.




Страна: Россия
Студия: Киностудия ТИТАН
Продолжительность: 01:26:32
Перевод: Оригинальный
Субтитры: Отсутствуют

Качество: BDRemux 1080i
Видео: AVC/H.264, 1920x1080, 23.6 Mbps, 25.000 fps
Аудио 1: DTS-HD MA, 6 ch, 2 694 Kbps - Русский
Аудио 2: AC3, 6 ch, 640 Kbps - Русский

MediaInfo:
General
Unique ID : 173103877087926796905613083120205875570 (0x823A9812D45F4CE29B5E52C6EDACC972)
Complete name : Игла.Remix.2010.BDRemux.1080i.mkv
Format : Matroska
Format version : Version 4
File size : 16.3 GiB
Duration : 1 h 26 min
Overall bit rate mode : Variable
Overall bit rate : 27.0 Mb/s
Encoded date : UTC 2019-06-01 14:46:41
Writing application : mkvmerge v34.0.0 ('Sight and Seen') 64-bit
Writing library : libebml v1.3.7 + libmatroska v1.5.0

Video
ID : 1
Format : AVC
Format/Info : Advanced Video Codec
Format profile : [email protected]
Format settings : CABAC / 4 Ref Frames
Format settings, CABAC : Yes
Format settings, Reference : 4 frames
Codec ID : V_MPEG4/ISO/AVC
Duration : 1 h 26 min
Bit rate mode : Variable
Bit rate : 23.6 Mb/s
Maximum bit rate : 34.0 Mb/s
Width : 1 920 pixels
Height : 1 080 pixels
Display aspect ratio : 16:9
Frame rate mode : Constant
Frame rate : 25.000 FPS
Standard : PAL
Color space : YUV
Chroma subsampling : 4:2:0
Bit depth : 8 bits
Scan type : MBAFF
Bits/(Pixel*Frame) : 0.456
Stream size : 14.3 GiB (88%)
Language : Russian
Default : Yes
Forced : No
Color range : Limited
Color primaries : BT.709
Transfer characteristics : BT.709
Matrix coefficients : BT.709

Audio #1
ID : 2
Format : DTS XLL
Format/Info : Digital Theater Systems
Commercial name : DTS-HD Master Audio
Codec ID : A_DTS
Duration : 1 h 26 min
Bit rate mode : Variable
Bit rate : 2 694 kb/s
Channel(s) : 6 channels
Channel layout : C L R Ls Rs LFE
Sampling rate : 48.0 kHz
Frame rate : 93.750 FPS (512 SPF)
Bit depth : 16 bits
Compression mode : Lossless
Stream size : 1.63 GiB (10%)
Language : Russian
Default : No
Forced : No

Audio #2
ID : 3
Format : AC-3
Format/Info : Audio Coding 3
Commercial name : Dolby Digital
Codec ID : A_AC3
Duration : 1 h 26 min
Bit rate mode : Constant
Bit rate : 640 kb/s
Channel(s) : 6 channels
Channel layout : L R C LFE Ls Rs
Sampling rate : 48.0 kHz
Frame rate : 31.250 FPS (1536 SPF)
Bit depth : 16 bits
Compression mode : Lossy
Stream size : 396 MiB (2%)
Language : Russian
Service kind : Complete Main
Default : No
Forced : No

Menu
00:00:00.000 : :Глава 01
00:15:37.640 : :Глава 02
00:22:23.600 : :Глава 03
00:29:02.000 : :Глава 04
00:40:31.640 : :Глава 05
00:50:34.480 : :Глава 06
00:58:10.720 : :Глава 07
01:12:22.920 : :Глава 08
01:21:28.000 : :Глава 09
Доп. информация:
Большое спасибо TeamHD за предоставленный исходник.
Скриншоты

 

Вложения

  • 82,8 KB Просмотры: 0
    Личеров 0
    Сидеров 0
    Файлов 1
    Объем 16,3 GB
Ваш e-mail не будет опубликован. Он потребуется для подтверждения Вашего поста.
Оформление текста Нажмите «Ввод», чтобы отправить ответ.