За сегодня опубликовано 3 новых материалов.
Инструкция новичку Путеводитель по форуму Прокси для Telegram Показать подсказки , это бомба!

Скачать Игла (1988) BDRemux 1080i | FRE Transfer бесплатно через торрент

  • Получай до 480 рублей за каждого приглашенного пользователя!
    представляем Вам очередное расширение партнерской программы, подробности описаны тут -> ссылка
  • 90% материалов доступно к скачиванию после простой регистрации!
    Если же ты хочешь скачивать материалы без требования оставлять отзывы то получи группу "Новичок", 10 способов повышения описаны тут -> ссылка
  • К сожалению количество битых ссылок растет и мы уже не можем их оперативно восстанавливать поэтому просим помощи у каждого нашего пользователя.
    С сегодняшнего дня, за каждую восстановленную ссылку мы заплатим Вам.
    Подробнее тут -> ссылка
  • Перенесем твои заслуги с другого ресурса!
    Мы понимаем как сложно прокачивать аккаунты на форумах, вроде раскачал аккаунт, а тут появляется ресурс в 100 раз круче но тоже с системой прокачки и снова качать аккаунт...
    Предлагаем вам перенести Ваши заслуги на другом подобном ресурсе к нам.
    Подробности описаны тут -> ссылка
  • Вы можете получать по 2.5% с каждой покупки и продажи на маркете! Подробности в теме Партнёрская программа
Если Вы не хотите скачивать, Вы всегда можете посмотреть онлайн, просто нажмите кнопку ниже :

Открыть плеер

Torrent_Bot

Торрент-Бот
Бот форума
4 Окт 2016
125
32
20



Информация о фильме
Название: Игла
Год выхода: 1988
Жанр: Триллер, драма
Режиссер: Рашид Нугманов
В ролях: Виктор Цой, Марина Смирнова, Петр Мамонов, Александр Баширов, Архимед Искаков, Геннадий Люй, Рахимджан Абдыкадыров, Григорий Эпштейн, Александр Конкс, Райхан Канатбаев

О фильме:
Вернувшись в Алма-Ату, Моро не хочет, чтобы родители знали о его приезде, и в поисках временного пристанища вспоминает о девушке, которую он когда-то любил. Дина рада встрече, но Моро что-то настораживает в ней.
Наблюдая за ее странными знакомыми, Моро понимает, что Дина стала наркоманкой. Как спасти девушку? Моро увозит ее к морю, где Дина начинает выздоравливать. Однако после возвращения в город все начинается сначала. Моро решает расправиться с поставщиками наркотиков.



Страна: CCCP
Студия: Студия Казахфильм
Продолжительность: 01:16:50
Перевод: Оригинальный
Субтитры: Русские, английские, французские

Качество: BDRemux 1080i
Видео: AVC/H.264, 1920x1080, 23.8 Mbps, 25.000 fps
Аудио 1: DTS-HD MA, 2 ch, 1 586 Kbps - Русский
Аудио 2: AC3, 2 ch, 640 Kbps - Русский

MediaInfo:
General
Unique ID : 203091634346354689655542641552255160642 (0x98CA06A836652FBD9854681E0A051142)
Complete name : Игла.1988.BDRemux.1080i.mkv
Format : Matroska
Format version : Version 4
File size : 14.0 GiB
Duration : 1 h 16 min
Overall bit rate mode : Variable
Overall bit rate : 26.0 Mb/s
Encoded date : UTC 2019-05-30 12:43:28
Writing application : mkvmerge v34.0.0 ('Sight and Seen') 64-bit
Writing library : libebml v1.3.7 + libmatroska v1.5.0

Video
ID : 1
Format : AVC
Format/Info : Advanced Video Codec
Format profile : [email protected]
Format settings : CABAC / 4 Ref Frames
Format settings, CABAC : Yes
Format settings, Reference : 4 frames
Codec ID : V_MPEG4/ISO/AVC
Duration : 1 h 16 min
Bit rate mode : Variable
Bit rate : 23.8 Mb/s
Maximum bit rate : 38.0 Mb/s
Width : 1 920 pixels
Height : 1 080 pixels
Display aspect ratio : 16:9
Frame rate mode : Constant
Frame rate : 25.000 FPS
Standard : PAL
Color space : YUV
Chroma subsampling : 4:2:0
Bit depth : 8 bits
Scan type : MBAFF
Bits/(Pixel*Frame) : 0.459
Stream size : 12.8 GiB (91%)
Language : French
Default : Yes
Forced : No
Color range : Limited
Color primaries : BT.709
Transfer characteristics : BT.709
Matrix coefficients : BT.709

Audio #1
ID : 2
Format : DTS XLL
Format/Info : Digital Theater Systems
Commercial name : DTS-HD Master Audio
Codec ID : A_DTS
Duration : 1 h 16 min
Bit rate mode : Variable
Bit rate : 1 586 kb/s
Channel(s) : 2 channels
Channel layout : L R
Sampling rate : 48.0 kHz
Frame rate : 93.750 FPS (512 SPF)
Bit depth : 16 bits
Compression mode : Lossless
Stream size : 872 MiB (6%)
Language : Russian
Default : No
Forced : No

Audio #2
ID : 3
Format : AC-3
Format/Info : Audio Coding 3
Commercial name : Dolby Digital
Codec ID : A_AC3
Duration : 1 h 16 min
Bit rate mode : Constant
Bit rate : 640 kb/s
Channel(s) : 2 channels
Channel layout : L R
Sampling rate : 48.0 kHz
Frame rate : 31.250 FPS (1536 SPF)
Bit depth : 16 bits
Compression mode : Lossy
Stream size : 352 MiB (2%)
Language : Russian
Service kind : Complete Main
Default : No
Forced : No

Text #1
ID : 4
Format : UTF-8
Codec ID : S_TEXT/UTF8
Codec ID/Info : UTF-8 Plain Text
Duration : 1 h 16 min
Bit rate : 41 b/s
Count of elements : 557
Stream size : 23.4 KiB (0%)
Language : Russian
Default : No
Forced : No

Text #2
ID : 5
Format : UTF-8
Codec ID : S_TEXT/UTF8
Codec ID/Info : UTF-8 Plain Text
Duration : 1 h 16 min
Bit rate : 24 b/s
Count of elements : 511
Stream size : 13.8 KiB (0%)
Language : English
Default : No
Forced : No

Text #3
ID : 6
Format : UTF-8
Codec ID : S_TEXT/UTF8
Codec ID/Info : UTF-8 Plain Text
Duration : 1 h 16 min
Bit rate : 21 b/s
Count of elements : 499
Stream size : 12.2 KiB (0%)
Language : French
Default : No
Forced : No

Menu
00:00:00.000 : :Глава 01
00:07:14.920 : :Глава 02
00:14:38.520 : :Глава 03
00:22:07.760 : :Глава 04
00:34:16.360 : :Глава 05
00:47:08.800 : :Глава 06
00:55:38.800 : :Глава 07
01:05:08.080 : :Глава 08
01:12:47.720 : :Глава 09
Доп. информация:
Большое спасибо TeamHD за предоставленный исходник.
Скриншоты

 

Вложения

  • 71,2 KB Просмотры: 0
    Личеров 0
    Сидеров 0
    Файлов 1
    Объем 14 GB
Ваш e-mail не будет опубликован. Он потребуется для подтверждения Вашего поста.
Оформление текста Нажмите «Ввод», чтобы отправить ответ.