За сегодня опубликовано 14 новых материалов.
Инструкция новичку Путеводитель по форуму Прокси для Telegram Показать подсказки , это бомба!

Скачать Гостья из будущего (1984) DVDRip-AVC бесплатно через торрент

  • Получай до 480 рублей за каждого приглашенного пользователя!
    представляем Вам очередное расширение партнерской программы, подробности описаны тут -> ссылка
  • 90% материалов доступно к скачиванию после простой регистрации!
    Если же ты хочешь скачивать материалы без требования оставлять отзывы то получи группу "Новичок", 10 способов повышения описаны тут -> ссылка
  • К сожалению количество битых ссылок растет и мы уже не можем их оперативно восстанавливать поэтому просим помощи у каждого нашего пользователя.
    С сегодняшнего дня, за каждую восстановленную ссылку мы заплатим Вам.
    Подробнее тут -> ссылка
  • Перенесем твои заслуги с другого ресурса!
    Мы понимаем как сложно прокачивать аккаунты на форумах, вроде раскачал аккаунт, а тут появляется ресурс в 100 раз круче но тоже с системой прокачки и снова качать аккаунт...
    Предлагаем вам перенести Ваши заслуги на другом подобном ресурсе к нам.
    Подробности описаны тут -> ссылка
  • Вы можете получать по 2.5% с каждой покупки и продажи на маркете! Подробности в теме Партнёрская программа
Если Вы не хотите скачивать, Вы всегда можете посмотреть онлайн, просто нажмите кнопку ниже :

Открыть плеер

Torrent_Bot

Торрент-Бот
Бот форума
4 Окт 2016
125
32
20



Информация о фильме
Название: Гостья из будущего
Год выхода: 1984
Жанр: Фантастика, приключения
Режиссер: Павел Арсенов
В ролях: Наталья Гусева, Алексей Фомкин, Илья Наумов, Вячеслав Невинный, Михаил Кононов, Евгений Герасимов, Владимир Носик, Юрий Григорьев, Игорь Ясулович, Георгий Бурков, Валентина Талызина, Вячеслав Баранов, Наталья Варлей, Андрей Градов, Елена Цыплакова, Борис Щербаков, Светлана Харитонова, Людмила Аринина, Татьяна Божок, Мария Скворцова, Инна Гомес, Марьяна Ионесян, Елена Метёлкина, Мария Стерникова, Екатерина Васильева (II), Антон Суховерко, Семён Бузган, Алексей Муравьев, Екатерина Авербах, Елена Коляскина, Мария Баукина, Наталья Шанаева, Рубен Симонов, Сергей Рошинец, Раднэр Муратов, Манефа Соболевская

О фильме:
13 апреля 1984 года, в пятницу, ученик 6-го «Б» класса 20-й московской школы Коля Герасимов, отправившись после уроков в магазин за кефиром, встречает на оживлённой улице друга и одноклассника Фиму Королёва, который, в свою очередь, увлекает его слежкой за таинственной незнакомкой. Выслеживая её, ребята забираются в старый заброшенный двухэтажный дом, но незнакомки там не оказывается. В подвале, в потайной комнате, вход в которую замаскирован под обычный шкаф, Коля обнаруживает машину времени. Борьба с космическими пиратами, захватывающее путешествие во времени, знакомство с роботом Вертером, говорящим козлом и девочкой из будущего Алисой Селезневой - вот к чему привел Колю обычный поход за кефиром. Фильм поставлен по мотивам фантастического романа Кира Булычева «Сто лет тому вперед»...




Страна: СССР
Студия: Горького
Продолжительность: 5x ~ 01:06:00

Файл
Кодек: x264
Качество: DVDRip
Видео: 768x576 (4:3), 24.000 fps, AVC, 3716 Kbps
Звук: MP3, 320Kbps, 48.0 KHz, 2 channels
Субтитры: нет
MediaInfo:
General
Unique ID : 227303132726935214449848007561973876225 (0xAB00FDB0AE406C2CA04A0C5321704601)
Complete name : E:/Гостья из Будущего/01.mkv
Format : Matroska
Format version : Version 4 / Version 2
File size : 1.90 GiB
Duration : 1h 6mn
Overall bit rate : 4 118 Kbps
Encoded date : UTC 2019-02-12 10:17:59
Writing application : mkvmerge v7.8.0 ('River Man') 64bit built on Mar 27 2015 16:31:37
Writing library : libebml v1.3.1 + libmatroska v1.4.2
DURATION : 01:06:06.696000000
NUMBER_OF_FRAMES : 165279
NUMBER_OF_BYTES : 158667840
_STATISTICS_WRITING_APP : mkvmerge v7.8.0 ('River Man') 64bit built on Mar 27 2015 16:31:37
_STATISTICS_WRITING_DATE_UTC : 2019-02-12 10:17:59
_STATISTICS_TAGS : BPS DURATION NUMBER_OF_FRAMES NUMBER_OF_BYTES

Video
ID : 1
Format : AVC
Format/Info : Advanced Video Codec
Format profile : [email protected]
Format settings, CABAC : Yes
Format settings, ReFrames : 16 frames
Codec ID : V_MPEG4/ISO/AVC
Duration : 1h 6mn
Bit rate : 3 716 Kbps
Width : 768 pixels
Height : 576 pixels
Display aspect ratio : 4:3
Frame rate mode : Constant
Frame rate : 24.000 fps
Color space : YUV
Chroma subsampling : 4:2:0
Bit depth : 8 bits
Scan type : Progressive
Bits/(Pixel*Frame) : 0.350
Stream size : 1.72 GiB (90%)
Writing library : x264 core 152 r2851kMod ba24899
Encoding settings : cabac=1 / ref=16 / deblock=1:0:0 / analyse=0x3:0x133 / me=umh / subme=11 / psy=1 / fade_compensate=0.00 / psy_rd=1.00:0.10 / mixed_ref=1 / me_range=64 / chroma_me=1 / trellis=2 / 8x8dct=1 / cqm=0 / deadzone=21,11 / fast_pskip=0 / chroma_qp_offset=-3 / threads=6 / lookahead_threads=1 / sliced_threads=0 / nr=0 / decimate=1 / interlaced=0 / bluray_compat=0 / constrained_intra=0 / bframes=16 / b_pyramid=2 / b_adapt=2 / b_bias=0 / direct=3 / weightb=1 / open_gop=0 / weightp=2 / keyint=240 / keyint_min=24 / scenecut=40 / intra_refresh=0 / rc=crf / mbtree=0 / crf=15.0000 / qcomp=0.60 / qpmin=0 / qpmax=69 / qpstep=4 / ip_ratio=1.40 / pb_ratio=1.30 / aq=3:0.70
Default : Yes
Forced : No

Audio
ID : 2
Format : MPEG Audio
Format version : Version 1
Format profile : Layer 3
Mode : Joint stereo
Codec ID : A_MPEG/L3
Codec ID/Hint : MP3
Duration : 1h 6mn
Bit rate mode : Constant
Bit rate : 320 Kbps
Channel(s) : 2 channels
Sampling rate : 48.0 KHz
Compression mode : Lossy
Stream size : 151 MiB (8%)
Writing library : LAME3.100Н
Language : Russian
Default : Yes
Forced : No

Скриншоты


Дополнительная информация Что было сделано: привёл к оригинальной частоте 24к/c, с восстановлением тональности звука, как должна быть на плёнке, вернул стерео с учётом информации из НЧ канала. Применил цветовую матрицу, многие про это забывают, в результате чего лица становятся болезненно-розовые вместо жёлтого и т.д. Использовал несколько шумодавов с лёгкими настройками, немного подрезал уровень чёрного, чуть прибавил насыщенность для восстановления после фильтров, дебандинг. Делал для себя, возможно кому-нибудь ещё пригодится. Постоянно раздавать не смогу, пожалуйста подцепляйте у кого есть возможность.
P.S. Кто пользуется MPC-HomeCinema, можно попробовать добавить генератор мелкого шума PS_Noise, из комплекта mpc-pixel-shaders-master, немного улучшается глубина картинки, так как исходник конечно не подарок :)

 

Вложения

  • 49,8 KB Просмотры: 0
    Личеров 0
    Сидеров 0
    Файлов 5
    Объем 9,7 GB
Ваш e-mail не будет опубликован. Он потребуется для подтверждения Вашего поста.
Оформление текста Нажмите «Ввод», чтобы отправить ответ.