За сегодня опубликовано 15 новых материалов.
Инструкция новичку Путеводитель по форуму Прокси для Telegram Показать подсказки , это бомба!

Скачать Геннадий Белов - Золотая коллекция Ретро - Травы, травы 2'CD (2008) APE by гаврила бесплатно через торрент

  • Получай до 480 рублей за каждого приглашенного пользователя!
    представляем Вам очередное расширение партнерской программы, подробности описаны тут -> ссылка
  • 90% материалов доступно к скачиванию после простой регистрации!
    Если же ты хочешь скачивать материалы без требования оставлять отзывы то получи группу "Новичок", 10 способов повышения описаны тут -> ссылка
  • К сожалению количество битых ссылок растет и мы уже не можем их оперативно восстанавливать поэтому просим помощи у каждого нашего пользователя.
    С сегодняшнего дня, за каждую восстановленную ссылку мы заплатим Вам.
    Подробнее тут -> ссылка
  • Перенесем твои заслуги с другого ресурса!
    Мы понимаем как сложно прокачивать аккаунты на форумах, вроде раскачал аккаунт, а тут появляется ресурс в 100 раз круче но тоже с системой прокачки и снова качать аккаунт...
    Предлагаем вам перенести Ваши заслуги на другом подобном ресурсе к нам.
    Подробности описаны тут -> ссылка
  • Вы можете получать по 2.5% с каждой покупки и продажи на маркете! Подробности в теме Партнёрская программа

Torrent_Bot

Торрент-Бот
Бот форума
4 Окт 2016
125
32
20
Геннадий Белов - Золотая коллекция Ретро - Травы, травы 2'CD



треклист CD1:
1. На дальней станции сойду (В.Шаинский - М.Танич)
2. Песня о моей любви (Е.Мартынов - С.Островой)
3. Земляничное лето (С.Туликов - Е.Антошкин)
4. Колдует осень золотая (Ю.Турнянский - А.Трилисов)
5. Здравствуй, жаворонок-птица (Ю.Чичков - К.Ибряев)
6. Этот большой мир (В.Чернышов - Р.Рождественский)
7. Сестра ты моя, Ока (В.Левашов - В.Лазарев)
8. Есть ли память у любви (Е.Жарковский - В.Лазарев)
9. Лето (Е.Суслов - Р.Амашукели)
10. Земля родимая (Е.Птичкин - В.Татаринов)
11. Я так люблю тебя (И.Якушенко - И.Шаферан)
12. Маленький российский городок (В.Хвойницкий - Ю.Гарин)
13. Где кончаются рельсы (Р.Мануков - Г.Колесников)
14. Синее небо России (В.Зуев - Т.Кузовлёва)
15. Гордая мама моя (В.Ветров - О.Фокина)
16. За седыми тополями (А.Абрамов - Е.Карасёв)
17. Добрая столица (П.Аедоницкий - И.Романовский)

треклист CD2:
1. Травы, травы (В.Шаинский - И.Юшин)
2. Всегда со мной моя Россия (С.Туликов - В.Лазарев)
3. Медсестра (В.Газарян - А.Заурих)
4. Край отцовский (Э.Колмановский - И.Шаферан)
5. Письма с фронта (И.Якушенко - И.Шаферан)
6. Девушки в защитных гимнастёрках (А.Мажуков - А.Монастырёв, О.Писаржевская)
7. Возьми моё сердце (Э.Колмановский - В.Татаринов)
8. Снова в рощах Подмосковья (П.Аедоницкий - Л.Ошанин)
9. Берёзы (М.Фрадкин - В.Лазарев)
10. Песня Насреддина (Е.Крылатов - Ю.Энтин)
11. Победа остаётся молодой (И.Якушенко - И.Шаферан)
12. Поговори со мной (Г.Пономаренко - С.Красиков)
13. Утомлённое солнце (Е.Петербургский - И.Альбек)
14. Мусенька родная (О.Строк)
15. Дуня, люблю твои блины (М.Марьяновский)
16. Люблю (Вдыхая розы аромат) (Е.Розенфельд - Н.Венгерский)
17. Добро (М.Чуев - Б.Дубровин)
9 - дуэт с Еленой Чепой
12 - дуэт с Эльмирой Жерздевой

Жанр:Retro
Год выпуска диска: 2008
Производитель диска: Россия
Аудио кодек: APE
Тип рипа: image+.cue
Битрейт аудио: lossless
Продолжительность: 2ч 04м 02с

Exact Audio Copy V0.99 prebeta 4 from 23. January 2008
Отчёт EAC об извлечении, выполненном 19. июля 2008, 19:59
Геннадий Белов / Травы, травы
Дисковод: Optiarc DVD RW AD-5170A Adapter: 0 ID: 0
Режим чтения : Достоверность
Использование точного потока : Да
Отключение кэша аудио : Да
Использование указателей C2 : Нет
Коррекция смещения при чтении : 48
Способность читать области Lead-in и Lead-out : Нет
Заполнение пропущенных сэмплов тишиной : Да
Удаление блоков с тишиной в начале и конце : Нет
При вычислениях CRC использовались нулевые сэмплы : Да
Интерфейс : Встроенный Win32-интерфейс для Win NT/2000
Выходной формат : Внутренние WAV-операции
Формат сэмплов : 44.100 Гц; 16 бит; стерео
TOC извлечённого CD
Трек | Старт | Длительность | Начальный сектор | Конечный сектор
---------------------------------------------------------------------
1 | 0:00.00 | 4:00.69 | 0 | 18068
2 | 4:00.69 | 2:59.22 | 18069 | 31515
3 | 7:00.16 | 3:12.30 | 31516 | 45945
4 | 10:12.46 | 3:04.44 | 45946 | 59789
5 | 13:17.15 | 3:09.17 | 59790 | 73981
6 | 16:26.32 | 4:48.52 | 73982 | 95633
7 | 21:15.09 | 4:14.65 | 95634 | 114748
8 | 25:29.74 | 4:13.57 | 114749 | 133780
9 | 29:43.56 | 3:17.64 | 133781 | 148619
10 | 33:01.45 | 4:56.37 | 148620 | 170856
11 | 37:58.07 | 3:35.63 | 170857 | 187044
12 | 41:33.70 | 4:29.70 | 187045 | 207289
13 | 46:03.65 | 2:57.01 | 207290 | 220565
14 | 49:00.66 | 4:08.21 | 220566 | 239186
15 | 53:09.12 | 4:15.46 | 239187 | 258357
16 | 57:24.58 | 4:02.27 | 258358 | 276534
17 | 61:27.10 | 3:30.71 | 276535 | 292355
Характеристики диапазона извлечения и сообщения об ошибках
Выбранный диапазон
Имя файла D:AudioГеннадий Белов - Травы, травы (CD1).wav
Пиковый уровень 96.9 %
Качество диапазона 99.9 %
CRC копии 4E45B1C5
Копирование... OK
Ошибок не произошло
Конец отчёта
Exact Audio Copy V0.99 prebeta 4 from 23. January 2008
Отчёт EAC об извлечении, выполненном 19. июля 2008, 22:21
Геннадий Белов / Травы, травы
Дисковод: Optiarc DVD RW AD-5170A Adapter: 0 ID: 0
Режим чтения : Достоверность
Использование точного потока : Да
Отключение кэша аудио : Да
Использование указателей C2 : Нет
Коррекция смещения при чтении : 48
Способность читать области Lead-in и Lead-out : Нет
Заполнение пропущенных сэмплов тишиной : Да
Удаление блоков с тишиной в начале и конце : Нет
При вычислениях CRC использовались нулевые сэмплы : Да
Интерфейс : Встроенный Win32-интерфейс для Win NT/2000
Выходной формат : Внутренние WAV-операции
Формат сэмплов : 44.100 Гц; 16 бит; стерео
TOC извлечённого CD
Трек | Старт | Длительность | Начальный сектор | Конечный сектор
---------------------------------------------------------------------
1 | 0:00.00 | 4:15.02 | 0 | 19126
2 | 4:15.02 | 3:19.55 | 19127 | 34106
3 | 7:34.57 | 3:32.03 | 34107 | 50009
4 | 11:06.60 | 2:57.03 | 50010 | 63287
5 | 14:03.63 | 4:07.40 | 63288 | 81852
6 | 18:11.28 | 3:05.17 | 81853 | 95744
7 | 21:16.45 | 4:59.12 | 95745 | 118181
8 | 26:15.57 | 3:22.16 | 118182 | 133347
9 | 29:37.73 | 4:46.09 | 133348 | 154806
10 | 34:24.07 | 2:33.69 | 154807 | 166350
11 | 36:58.01 | 4:02.13 | 166351 | 184513
12 | 41:00.14 | 3:31.15 | 184514 | 200353
13 | 44:31.29 | 2:28.00 | 200354 | 211453
14 | 46:59.29 | 3:19.39 | 211454 | 226417
15 | 50:18.68 | 3:09.04 | 226418 | 240596
16 | 53:27.72 | 2:21.40 | 240597 | 251211
17 | 55:49.37 | 3:10.67 | 251212 | 265528
Характеристики диапазона извлечения и сообщения об ошибках
Выбранный диапазон
Имя файла D:AudioГеннадий Белов - Травы, травы (CD2).wav
Пиковый уровень 98.8 %
Качество диапазона 100.0 %
CRC копии C39D67FF
Копирование... OK
Ошибок не произошло
Конец отчёта
 

Вложения

  • 13,8 KB Просмотры: 0
    Личеров 0
    Сидеров 0
    Файлов 13
    Объем 599,8 MB
Ваш e-mail не будет опубликован. Он потребуется для подтверждения Вашего поста.
Оформление текста Нажмите «Ввод», чтобы отправить ответ.