За сегодня опубликовано 26 новых материалов.
Инструкция новичку Путеводитель по форуму Прокси для Telegram Показать подсказки , это бомба!

Скачать Гарфилд / Garfield (2004) BDRip-HEVC 1080p | D бесплатно через торрент

  • 90% материалов доступно к скачиванию после простой регистрации!
    Если же ты хочешь скачивать материалы без требования оставлять отзывы то получи группу "Новичок", 10 способов повышения описаны тут -> ссылка
  • К сожалению количество битых ссылок растет и мы уже не можем их оперативно восстанавливать поэтому просим помощи у каждого нашего пользователя.
    С сегодняшнего дня, за каждую восстановленную ссылку мы заплатим Вам.
    Подробнее тут -> ссылка
  • Перенесем твои заслуги с другого ресурса!
    Мы понимаем как сложно прокачивать аккаунты на форумах, вроде раскачал аккаунт, а тут появляется ресурс в 100 раз круче но тоже с системой прокачки и снова качать аккаунт...
    Предлагаем вам перенести Ваши заслуги на другом подобном ресурсе к нам.
    Подробности описаны тут -> ссылка
  • Вы можете получать по 2.5% с каждой покупки и продажи на маркете! Подробности в теме Партнёрская программа
Если Вы не хотите скачивать, Вы всегда можете посмотреть онлайн, просто нажмите кнопку ниже :

Открыть плеер

Torrent_Bot

Торрент-Бот
Бот форума
4 Окт 2016
125
17
20



Название: Гарфилд
Оригинальное название: Garfield
Год выхода: 2004
Жанр: мультфильм, фэнтези, комедия, семейный
Режиссер: Питер Хьюит
В ролях: Брекин Мейер, Дженнифер Лав Хьюитт, Стивен Тоболовски, Билл Мюррей, Ивэн Арнольд, Марк Кристофер Лоуренс, Ванесса Кристель, Даамен Дж. Кралл, Руфус Гиффорд, Рэнди Рейхер

О фильме: Хозяин кота Гарфилда, Джон, приносит в дом милого щенка Оди, и с этого момента жизнь Гарфилда идёт наперекосяк. Он хочет только одного — чтобы пёс навсегда исчез из его жизни и из его дома! Но когда внезапно щенка похищают, Гарфилд, возможно, впервые в жизни чувствует лежащую на нём ответственность. И начинает действовать.



Страна: США
Студия: Twentieth Century Fox Film Corporation, Davis Entertainment
Продолжительность: 01:20:12
Перевод: Дублированный (лицензия)

Качество: BDRip-HEVC 1080p
Кодек: HEVC (x265)
Видео: 1918x1040 (1.85:1), 10,7 Мбит/сек, 0.223 бит/(Пиксели*Кадры), 23.976 (24000/1001) кадр/сек, HEVC ([email protected]@High) 10 бит
Звук:
Аудио1: AC3, 6 ch, 640 Kbps Русский, Дублированный (Лицензия)
Аудио2: AC3, 6 ch, 640 Kbps English, Original
Субтитры: Русские полные (SRT), English full (SRT)
Навигация по главам: Есть

Mediainfo
x265 info: frame I: 489, Avg QP:16.80 kb/s: 24148.58
x265 info: frame P: 21599, Avg QP:18.08 kb/s: 17168.09
x265 info: frame B: 93291, Avg QP:20.03 kb/s: 9084.04
x265 info: Weighted P-Frames: Y:7.3% UV:5.1%
x265 info: Weighted B-Frames: Y:6.5% UV:3.2%
x265 info: consecutive B-frames: 2.2% 5.6% 7.5% 31.7% 8.6% 26.5% 4.6% 6.5% 1.9% 2.4% 0.7% 0.8% 0.4% 0.3% 0.1% 0.2% 0.1%
x265 info: encoded 115379 frames in 217488.15s (0.53 fps), 10661.23 kb/s, Avg QP:19.65

Формат : Matroska
Версия формата : Version 4
Размер файла : 6,69 Гбайт
Продолжительность : 1 ч. 20 м.
Общий поток : 11,9 Мбит/сек
Название фильма : Гарфилд
Дата кодирования : UTC 2019-05-14 13:54:57
Программа кодирования : mkvmerge v33.0.0 ('A Little Bit of Madness') 64-bit
Библиотека кодирования : libebml v1.3.7 + libmatroska v1.5.0 / Lavf57.71.100
Примечание : Rip by OldGamer
Attachments : poster.jpg
ACTORS : Брекин Мейер, Дженнифер Лав Хьюитт,
COUNTRY : США
DATE : 2004
DIRECTOR : Питер Хьюит
ENCODING_INFO : MATROSKA,WEBM > MKV / H264 > X265 CRF 18.0 Very Slow / DTS > AC3 CBR 864kbps / DTS > AC3 CBR 864kbps
GENRE : Мультфильм, Фэнтези, Комедия
HD_VIDEO : 1
Язык : und
MEDIA_TYPE : 9
ORIGINAL_TITLE : Garfield

Видео
Идентификатор : 1
Формат : HEVC
Формат/Информация : High Efficiency Video Coding
Профиль формата : Main [email protected]@High
Идентификатор кодека : V_MPEGH/ISO/HEVC
Продолжительность : 1 ч. 20 м.
Битрейт : 10,7 Мбит/сек
Ширина : 1918 пикселей
Высота : 1040 пикселей
Соотношение сторон : 1,85:1
Режим частоты кадров : Постоянный
Частота кадров : 23,976 (24000/1001) кадра/сек
Цветовое пространство : YUV
Субдискретизация насыщенности : 4:2:0
Битовая глубина : 10 бит
Бит/(Пиксели*Кадры) : 0.223
Размер потока : 5,97 Гбайт (89%)
Заголовок : Гарфилд / Rip by OldGamer
Библиотека кодирования : x265 2.9+9-f74003e88622:[Mac OS X][clang 10.0.0][64 bit] 10bit
Настройки программы : cpuid=1111039 / frame-threads=14 / wpp / no-pmode / no-pme / no-psnr / no-ssim / log-level=3 / input-csp=1 / input-res=1918x1040 / interlace=0 / total-frames=0 / level-idc=41 / high-tier=1 / uhd-bd=0 / ref=5 / allow-non-conformance / no-repeat-headers / annexb / no-aud / no-hrd / info / hash=0 / no-temporal-layers / open-gop / min-keyint=23 / keyint=240 / gop-lookahead=0 / bframes=16 / b-adapt=2 / b-pyramid / bframe-bias=0 / rc-lookahead=60 / lookahead-slices=6 / scenecut=40 / radl=0 / no-intra-refresh / ctu=64 / min-cu-size=8 / rect / amp / max-tu-size=32 / tu-inter-depth=4 / tu-intra-depth=4 / limit-tu=1 / rdoq-level=2 / dynamic-rd=0.00 / no-ssim-rd / signhide / no-tskip / nr-intra=0 / nr-inter=0 / no-constrained-intra / no-strong-intra-smoothing / max-merge=5 / limit-refs=2 / no-limit-modes / me=3 / subme=7 / merange=57 / temporal-mvp / weightp / weightb / no-analyze-src-pics / deblock=-3:-3 / no-sao / no-sao-non-deblock / rd=6 / no-early-skip / rskip / no-fast-intra / no-tskip-fast / no-cu-lossless / no-b-intra / no-splitrd-skip / rdpenalty=0 / psy-rd=2.00 / psy-rdoq=1.00 / no-rd-refine / no-lossless / cbqpoffs=0 / crqpoffs=0 / rc=crf / crf=18.0 / qcomp=0.60 / qpstep=4 / stats-write=0 / stats-read=0 / vbv-maxrate=50000 / vbv-bufsize=50000 / vbv-init=0.9 / crf-max=0.0 / crf-min=0.0 / ipratio=1.40 / pbratio=1.30 / aq-mode=2 / aq-strength=0.80 / no-cutree / zone-count=0 / no-strict-cbr / qg-size=32 / no-rc-grain / qpmax=69 / qpmin=0 / no-const-vbv / sar=1 / overscan=0 / videoformat=5 / range=0 / colorprim=1 / transfer=1 / colormatrix=1 / chromaloc=0 / display-window=0 / max-cll=0,0 / min-luma=0 / max-luma=1023 / log2-max-poc-lsb=8 / vui-timing-info / vui-hrd-info / slices=1 / no-opt-qp-pps / no-opt-ref-list-length-pps / no-multi-pass-opt-rps / scenecut-bias=0.00 / no-opt-cu-delta-qp / aq-motion / no-hdr / no-hdr-opt / no-dhdr10-opt / no-idr-recovery-sei / analysis-reuse-level=5 / scale-factor=0 / refine-intra=0 / refine-inter=0 / refine-mv=0 / no-limit-sao / ctu-info=0 / no-lowpass-dct / refine-mv-type=0 / copy-pic=1 / max-ausize-factor=1.0 / no-dynamic-refine / no-single-sei
Язык : English
Default : Да
Forced : Нет
Цветовой диапазон : Limited
Основные цвета : BT.709
Характеристики трансфера : BT.709
Коэффициенты матрицы : BT.709

Аудио #1
Идентификатор : 2
Формат : AC-3
Формат/Информация : Audio Coding 3
Коммерческое название : Dolby Digital
Идентификатор кодека : A_AC3
Продолжительность : 1 ч. 20 м.
Вид битрейта : Постоянный
Битрейт : 640 Кбит/сек
Каналы : 6 каналов
Channel layout : L R C LFE Ls Rs
Частота : 48,0 КГц
Частота кадров : 31,250 кадров/сек (1536 SPF)
Битовая глубина : 16 бит
Метод сжатия : С потерями
Размер потока : 367 Мбайт (5%)
Заголовок : Дублированный
Язык : Russian
ServiceKind/ : Complete Main
Default : Да
Forced : Нет

Аудио #2
Идентификатор : 3
Формат : AC-3
Формат/Информация : Audio Coding 3
Коммерческое название : Dolby Digital
Идентификатор кодека : A_AC3
Продолжительность : 1 ч. 20 м.
Вид битрейта : Постоянный
Битрейт : 640 Кбит/сек
Каналы : 6 каналов
Channel layout : L R C LFE Ls Rs
Частота : 48,0 КГц
Частота кадров : 31,250 кадров/сек (1536 SPF)
Битовая глубина : 16 бит
Метод сжатия : С потерями
Размер потока : 367 Мбайт (5%)
Заголовок : English
Язык : English
ServiceKind/ : Complete Main
Default : Нет
Forced : Нет

Текст #1
Идентификатор : 4
Формат : UTF-8
Идентификатор кодека : S_TEXT/UTF8
Идентификатор кодека/Информация : UTF-8 Plain Text
Продолжительность : 1 ч. 12 м.
Битрейт : 108 бит/сек
ElementCount : 859
Размер потока : 58,1 Кбайт (0%)
Язык : Russian
Default : Нет
Forced : Нет

Текст #2
Идентификатор : 5
Формат : UTF-8
Идентификатор кодека : S_TEXT/UTF8
Идентификатор кодека/Информация : UTF-8 Plain Text
Продолжительность : 1 ч. 11 м.
Битрейт : 85 бит/сек
ElementCount : 1161
Размер потока : 45,2 Кбайт (0%)
Язык : English
Default : Нет
Forced : Нет

Меню
00:00:00.000 : :Chapter 01
00:01:50.735 : :Chapter 02
00:03:59.197 : :Chapter 03
00:06:37.855 : :Chapter 04
00:08:32.970 : :Chapter 05
00:10:27.418 : :Chapter 06
00:12:19.447 : :Chapter 07
00:14:53.726 : :Chapter 08
00:18:55.801 : :Chapter 09
00:20:52.334 : :Chapter 10
00:23:36.540 : :Chapter 11
00:25:02.459 : :Chapter 12
00:28:07.018 : :Chapter 13
00:30:05.637 : :Chapter 14
00:31:35.476 : :Chapter 15
00:33:26.170 : :Chapter 16
00:42:21.330 : :Chapter 17
00:45:54.168 : :Chapter 18
00:50:17.139 : :Chapter 19
00:52:41.283 : :Chapter 20
00:57:31.114 : :Chapter 21
01:00:40.428 : :Chapter 22
01:02:11.853 : :Chapter 23
01:05:43.397 : :Chapter 24
01:06:18.933 : :Chapter 25
01:07:51.233 : :Chapter 26
01:11:17.982 : :Chapter 27
01:13:23.982 : :Chapter 28
Скриншоты


Автор: OldGamer
 

Вложения

  • 17,7 KB Просмотры: 0
    Личеров 0
    Сидеров 0
    Файлов 1
    Объем 6,7 GB
Ваш e-mail не будет опубликован. Он потребуется для подтверждения Вашего поста.
Оформление текста Нажмите «Ввод», чтобы отправить ответ.

Привет!

Мы группа людей которые решили помочь другим в решении их проблем, а так же пользователям с поиском самых свежих и качественных инфопродуктов. За 4 с небольшим месяца мы создали этот форум на который заходят ежедневно тысячи человек и посещаемость постоянно растёт. Мы создали панель лицензирования для защиты PHP скриптов от воровства и SEO панель для мониторинга наших сайтов и выбора верной стратегии их развития. Мы надеемся что то что мы создали пригодится Вам и возможно Вы поможете нам развиваться и совершенствоваться вместе с Вами.

Статистика форума

Темы
347.301
Сообщения
372.899
Пользователи
28.645
Новый пользователь
alex123245679

Приложения форума для iOS и Android


У ркн там нет власти ;)
Гостевуха
Помощь Пользователи
  • H Chat Bot:
    Гость hjjjj присоединился к комнате.
    +1
  • H (Гость) hjjjj:
    тест
    Цитата
  • mizaider @ mizaider:
    Ну что там. Тест пройден или нет? Я волнуюсь.
    Цитата
  • V Chat Bot:
    Гость Vapasik2 присоединился к комнате.
  • V (Гость) Vapasik2:
    Добрый вечер. Не могу восстановить пароль (не приходит уведомление на почту).
    Цитата
  • V (Гость) Vapasik2:
    Что делать?
    Цитата
  • Alpha @ Alpha:
    Vapasik2 написал(а):
    Напишите в тех-поддержку Создать заявку
    Цитата
  • T Chat Bot:
    tezka75 присоединился(лась) к комнате.
  • D Chat Bot:
    DmitryB покинул(а) комнату.
  • Captain @ Captain:
    Батя в здание
    Цитата
  • Eevee @ Eevee:
    <script>alert('Привет))')</script>
    Цитата
  • Eevee @ Eevee:
    упс
    Цитата
  • mizaider @ mizaider:
    Не ну это бан
    Цитата
  • Captain @ Captain:
    Батя в здание
    Цитата
  • Captain @ Captain:
    @mizaider, чек лс@mizaider, чек лс
    Цитата
  • kolyan-malyan Chat Bot:
    kolyan-malyan покинул(а) комнату.
  • S Chat Bot:
    stylvihos покинул(а) комнату.
  • Verniki Chat Bot:
    Verniki присоединился(лась) к комнате.
  • Verniki @ Verniki:
    Уважаемые,пожалуйста, поясните мне - динозавру, что значит "тема в TOR"?
    Цитата
  • G Chat Bot:
    Garry_ покинул(а) комнату.
  • N Chat Bot:
    nyuh_900 покинул(а) комнату.
  • A Chat Bot:
    Asqw покинул(а) комнату.
    A Chat Bot: Asqw покинул(а) комнату.