За сегодня опубликовано 2 новых материалов.
Инструкция новичку Путеводитель по форуму Прокси для Telegram Показать подсказки , это бомба!

Скачать Фальшивый предатель / The Counterfeit Traitor (1962) BDRip 1080p | P бесплатно через торрент

  • Получай до 480 рублей за каждого приглашенного пользователя!
    представляем Вам очередное расширение партнерской программы, подробности описаны тут -> ссылка
  • 90% материалов доступно к скачиванию после простой регистрации!
    Если же ты хочешь скачивать материалы без требования оставлять отзывы то получи группу "Новичок", 10 способов повышения описаны тут -> ссылка
  • К сожалению количество битых ссылок растет и мы уже не можем их оперативно восстанавливать поэтому просим помощи у каждого нашего пользователя.
    С сегодняшнего дня, за каждую восстановленную ссылку мы заплатим Вам.
    Подробнее тут -> ссылка
  • Перенесем твои заслуги с другого ресурса!
    Мы понимаем как сложно прокачивать аккаунты на форумах, вроде раскачал аккаунт, а тут появляется ресурс в 100 раз круче но тоже с системой прокачки и снова качать аккаунт...
    Предлагаем вам перенести Ваши заслуги на другом подобном ресурсе к нам.
    Подробности описаны тут -> ссылка
  • Вы можете получать по 2.5% с каждой покупки и продажи на маркете! Подробности в теме Партнёрская программа
Если Вы не хотите скачивать, Вы всегда можете посмотреть онлайн, просто нажмите кнопку ниже :

Открыть плеер

Torrent_Bot

Торрент-Бот
Бот форума
4 Окт 2016
125
32
20



Информация о фильме
Название: Фальшивый предатель
Оригинальное название: The Counterfeit Traitor
Год выхода: 1962
Жанр: Драма, триллер, военный, экранизация
Режиссер: Джордж Ситон
В ролях: Уильям Холден, Лилли Палмер, Хью Гриффит, Карл Раддац, Эрнст Шрёдер, Шарль Ренье, Ингрид ван Берген, Вольфганг Прайсс, Вернер Петерс, Эрика Беер, Стефан Шнабель, Клаус Кински, Эрик Шуманн, Пауль Рейххардт, Джон Виттиг, Луис Михе-Ренард, Кай Холм, Йенс Остерхольм, Ёрген Крог, Ева Дальбек, Ульф Пальме, Джон Баннер, Мартин Берлинер, Йохен Блюме, Фил Браун, Макс Бухсбаум, Питер Кэпелл, Эйнер Федершпиль, Ева Фибиг

О фильме:
Фильм снят по книге Александра Кляйна "Мнимый предатель", которая была основана на реальных событиях. Эрик Эриксон, шведский бизнесмен, вынужден согласиться работать на разведку Союзников во время своих деловых поездок в нацистскую Германию. Снимали фильм в Стокгольме, Копенгагене, Гамбурге и Берлине, т.е. там, где реально происходили эти события. Актеров также приглашали из разных стран – США, Швеции, Дании, Германии. Долгое время этот фильм был практически забыт, вероятно потому что прокат был не очень удачным – в 1960-х годах американский актер Уильям Холден, исполнитель главной роли, жил в Швейцарии, и когда в США привезли этот фильм, то пресса призывала американцев не смотреть его, потому что Холден "отказывается жить в своей стране и платить налоги".



Страна: США
Студия: Perlberg-Seaton Productions
Продолжительность: 02:20:51
Перевод: Профессиональный многоголосый

Файл
Кодек: x.264
Качество: BDRip 1080p
Видео: MPEG-4 AVC, 11.4 Mбит/с, 1920x1080, 23.976 кадр/с
Аудио #1: Русский (АС3, 2ch, 192 Кбит/с, 48.0 KHz) Профессиональный (многоголосый, закадровый)
Аудио #2: Английский (АС3, 2ch, 192 Кбит/с, 48.0 KHz)
Субтитры: Русские, английские (*srt)
MediaInfo
The.Counterfeit.Traitor.1962.1080p.BluRay.x264-HANDJOB
General
Unique ID : 190072295706649540879760544550471016512 (0x8EFE97B3FA3294569C12DF7F498B2040)
Complete name : The.Counterfeit.Traitor.1962.1080p.mkv
Format : Matroska
Format version : Version 4 / Version 2
File size : 11.6 GiB
Duration : 2 h 20 min
Overall bit rate : 11.8 Mb/s
Encoded date : UTC 2019-04-18 19:08:53
Writing application : mkvmerge v7.1.0 ('Good Love') 64bit built on Jul 27 2014 13:06:55
Writing library : libebml v1.3.0 + libmatroska v1.4.1

Video
ID : 1
Format : AVC
Format/Info : Advanced Video Codec
Format profile : [email protected]
Format settings, CABAC : Yes
Format settings, RefFrames : 4 frames
Codec ID : V_MPEG4/ISO/AVC
Duration : 2 h 20 min
Bit rate : 11.4 Mb/s
Width : 1 920 pixels
Height : 1 080 pixels
Display aspect ratio : 16:9
Frame rate mode : Constant
Frame rate : 23.976 (24000/1001) FPS
Color space : YUV
Chroma subsampling : 4:2:0
Bit depth : 8 bits
Scan type : Progressive
Bits/(Pixel*Frame) : 0.229
Stream size : 11.2 GiB (97%)
Writing library : x264 core 157 r2935 545de2f
Encoding settings : cabac=1 / ref=4 / deblock=1:-3:-3 / analyse=0x3:0x133 / me=umh / subme=10 / psy=1 / psy_rd=1.00:0.00 / mixed_ref=1 / me_range=32 / chroma_me=1 / trellis=2 / 8x8dct=1 / cqm=0 / deadzone=21,11 / fast_pskip=0 / chroma_qp_offset=-2 / threads=6 / lookahead_threads=1 / sliced_threads=0 / nr=0 / decimate=0 / interlaced=0 / bluray_compat=0 / constrained_intra=0 / bframes=16 / b_pyramid=2 / b_adapt=2 / b_bias=0 / direct=3 / weightb=1 / open_gop=0 / weightp=2 / keyint=240 / keyint_min=24 / scenecut=40 / intra_refresh=0 / rc_lookahead=60 / rc=crf / mbtree=0 / crf=22.0 / qcomp=0.60 / qpmin=0 / qpmax=69 / qpstep=4 / vbv_maxrate=62500 / vbv_bufsize=78125 / crf_max=0.0 / nal_hrd=none / filler=0 / ip_ratio=1.40 / pb_ratio=1.30 / aq=2:1.00
Language : English
Default : Yes
Forced : No
Color range : Limited
Color primaries : BT.709
Transfer characteristics : BT.709
Matrix coefficients : BT.709

Audio #1
ID : 2
Format : AC-3
Format/Info : Audio Coding 3
Format settings, Endianness : Big
Codec ID : A_AC3
Duration : 2 h 20 min
Bit rate mode : Constant
Bit rate : 192 kb/s
Channel(s) : 2 channels
Channel positions : Front: L R
Sampling rate : 48.0 kHz
Frame rate : 31.250 FPS (1536 SPF)
Bit depth : 16 bits
Compression mode : Lossy
Stream size : 193 MiB (2%)
Language : Russian
Service kind : Complete Main
Default : Yes
Forced : No

Audio #2
ID : 3
Format : AC-3
Format/Info : Audio Coding 3
Format settings, Endianness : Big
Codec ID : A_AC3
Duration : 2 h 20 min
Bit rate mode : Constant
Bit rate : 192 kb/s
Channel(s) : 2 channels
Channel positions : Front: L R
Sampling rate : 48.0 kHz
Frame rate : 31.250 FPS (1536 SPF)
Bit depth : 16 bits
Compression mode : Lossy
Stream size : 193 MiB (2%)
Language : English
Service kind : Complete Main
Default : No
Forced : No

Text #1
ID : 4
Format : UTF-8
Codec ID : S_TEXT/UTF8
Codec ID/Info : UTF-8 Plain Text
Duration : 2 h 19 min
Bit rate : 113 b/s
Count of elements : 1483
Stream size : 115 KiB (0%)
Language : Russian
Default : No
Forced : No

Text #2
ID : 5
Format : UTF-8
Codec ID : S_TEXT/UTF8
Codec ID/Info : UTF-8 Plain Text
Duration : 2 h 16 min
Bit rate : 61 b/s
Count of elements : 1479
Stream size : 61.4 KiB (0%)
Language : English
Default : No
Forced : No

Menu
00:00:00.000 : :Chapter 1
00:12:31.334 : :Chapter 2
00:23:56.143 : :Chapter 3
00:36:08.667 : :Chapter 4
00:48:10.930 : :Chapter 5
01:01:44.117 : :Chapter 6
01:13:35.202 : :Chapter 7
01:24:03.080 : :Chapter 8
01:35:36.522 : :Chapter 9
01:47:53.217 : :Chapter 10
01:58:56.796 : :Chapter 11
02:11:41.894 : :Chapter 12
Скриншоты
 

Вложения

  • 29,9 KB Просмотры: 0
    Личеров 0
    Сидеров 0
    Файлов 1
    Объем 11,6 GB

Похожие темы

Ваш e-mail не будет опубликован. Он потребуется для подтверждения Вашего поста.
Оформление текста Нажмите «Ввод», чтобы отправить ответ.