За сегодня опубликовано 3 новых материалов.
Инструкция новичку Путеводитель по форуму Прокси для Telegram Показать подсказки , это бомба!

Скачать Эдуард Хиль - Золотая коллекция Ретро CD2 (2008) APE by гаврила бесплатно через торрент

  • Получай до 480 рублей за каждого приглашенного пользователя!
    представляем Вам очередное расширение партнерской программы, подробности описаны тут -> ссылка
  • 90% материалов доступно к скачиванию после простой регистрации!
    Если же ты хочешь скачивать материалы без требования оставлять отзывы то получи группу "Новичок", 10 способов повышения описаны тут -> ссылка
  • К сожалению количество битых ссылок растет и мы уже не можем их оперативно восстанавливать поэтому просим помощи у каждого нашего пользователя.
    С сегодняшнего дня, за каждую восстановленную ссылку мы заплатим Вам.
    Подробнее тут -> ссылка
  • Перенесем твои заслуги с другого ресурса!
    Мы понимаем как сложно прокачивать аккаунты на форумах, вроде раскачал аккаунт, а тут появляется ресурс в 100 раз круче но тоже с системой прокачки и снова качать аккаунт...
    Предлагаем вам перенести Ваши заслуги на другом подобном ресурсе к нам.
    Подробности описаны тут -> ссылка
  • Вы можете получать по 2.5% с каждой покупки и продажи на маркете! Подробности в теме Партнёрская программа

Torrent_Bot

Торрент-Бот
Бот форума
4 Окт 2016
125
31
20
Эдуард Хиль - Золотая коллекция Ретро CD2



треклист:
1. (00:02:54) Эдуард Хиль - Зима
2. (00:02:24) Эдуард Хиль - Девушка в сапожках (Русский сапожок)
3. (00:02:18) Эдуард Хиль - Человек из дома вышел
4. (00:02:37) Эдуард Хиль - Уезжают в армию ребята
5. (00:02:32) Эдуард Хиль - Как хорошо быть генералом
6. (00:03:06) Эдуард Хиль - Ах, какие сегодня зарницы
7. (00:03:11) Эдуард Хиль - Горько
8. (00:02:53) Эдуард Хиль - Синева
9. (00:03:01) Эдуард Хиль - Мамины глаза
10. (00:04:06) Эдуард Хиль - Я не забуду
11. (00:03:56) Эдуард Хиль - Моя хорошая
12. (00:03:22) Эдуард Хиль - Берёзовый сок
13. (00:02:48) Эдуард Хиль - Я шагаю по Москве
14. (00:04:17) Эдуард Хиль - Письма
15. (00:02:49) Эдуард Хиль - Середина лета
16. (00:03:10) Эдуард Хиль - Шёл солдат
17. (00:03:14) Эдуард Хиль - Золотой кораблик
18. (00:03:55) Эдуард Хиль - Петербург

Страна: Россия
Жанр:Retro
Год выпуска: 2008
Формат: APE (image + .cue)
Битрейт аудио: lossless


Exact Audio Copy V0.99 prebeta 4 from 23. January 2008

Отчёт EAC об извлечении, выполненном 23.октября 2008, 1:03
Эдуард Хиль / Золотая Коллекция Ретро (CD2)

Дисковод: Optiarc DVD RW AD-5170A Adapter: 0 ID: 0

Режим чтения : Достоверность
Использование точного потока : Да
Отключение кэша аудио : Да
Использование указателей C2 : Нет

Коррекция смещения при чтении :
48
Способность читать области Lead-in и Lead-out :
Нет
Заполнение пропущенных сэмплов тишиной
: Да
Удаление блоков с тишиной в начале и конце
: Нет
При вычислениях CRC использовались нулевые
сэмплы : Да
Интерфейс :
Установленный внешний ASPI-интерфейс

Выходной формат : Внутренние WAV-операции
Формат сэмплов : 44.100 Гц; 16 бит; стерео


TOC извлечённого CD

Трек | Старт | Длительность | Начальный
сектор | Конечный сектор
---------------------------------------------------------------------
1 | 0:00.00 | 2:54.32 | 0 | 13081
2 | 2:54.32 | 2:24.22 | 13082 | 23903
3 | 5:18.54 | 2:17.66 | 23904 | 34244
4 | 7:36.45 | 2:36.65 | 34245 | 46009
5 | 10:13.35 | 2:31.67 | 46010 | 57401
6 | 12:45.27 | 3:06.02 | 57402 | 71353
7 | 15:51.29 | 3:11.04 | 71354 | 85682
8 | 19:02.33 | 2:53.38 | 85683 | 98695
9 | 21:55.71 | 3:00.14 | 98696 | 112209
10 | 24:56.10 | 4:06.51 | 112210 | 130710
11 | 29:02.61 | 3:55.71 | 130711 | 148406
12 | 32:58.57 | 3:21.57 | 148407 | 163538
13 | 36:20.39 | 2:48.07 | 163539 | 176145
14 | 39:08.46 | 4:16.41 | 176146 | 195386
15 | 43:25.12 | 2:48.69 | 195387 | 208055
16 | 46:14.06 | 3:10.05 | 208056 | 222310
17 | 49:24.11 | 3:14.54 | 222311 | 236914
18 | 52:38.65 | 3:54.21 | 236915 | 254485


Характеристики диапазона извлечения и
сообщения об ошибках

Выбранный диапазон

Имя файла D:AudioЭ.ХильCD2Эдуард Хиль -
Золотая Коллекция Ретро (CD2).wav

Пиковый уровень 98.8 %
Качество диапазона 99.9 %
CRC копии 73063740
Копирование... OK

Ошибок не произошло
 

Вложения

  • 12,8 KB Просмотры: 0
    Личеров 0
    Сидеров 0
    Файлов 7
    Объем 290,2 MB
Ваш e-mail не будет опубликован. Он потребуется для подтверждения Вашего поста.
Оформление текста Нажмите «Ввод», чтобы отправить ответ.