За сегодня опубликовано 10 новых материалов.
Инструкция новичку Путеводитель по форуму Прокси для Telegram Показать подсказки , это бомба!

Скачать Эдита Пьеха - Город детства - Золотая коллекция Ретро 2 CD (2007) APE by гаврила бесплатно через торрент

  • Получай до 480 рублей за каждого приглашенного пользователя!
    представляем Вам очередное расширение партнерской программы, подробности описаны тут -> ссылка
  • 90% материалов доступно к скачиванию после простой регистрации!
    Если же ты хочешь скачивать материалы без требования оставлять отзывы то получи группу "Новичок", 10 способов повышения описаны тут -> ссылка
  • К сожалению количество битых ссылок растет и мы уже не можем их оперативно восстанавливать поэтому просим помощи у каждого нашего пользователя.
    С сегодняшнего дня, за каждую восстановленную ссылку мы заплатим Вам.
    Подробнее тут -> ссылка
  • Перенесем твои заслуги с другого ресурса!
    Мы понимаем как сложно прокачивать аккаунты на форумах, вроде раскачал аккаунт, а тут появляется ресурс в 100 раз круче но тоже с системой прокачки и снова качать аккаунт...
    Предлагаем вам перенести Ваши заслуги на другом подобном ресурсе к нам.
    Подробности описаны тут -> ссылка
  • Вы можете получать по 2.5% с каждой покупки и продажи на маркете! Подробности в теме Партнёрская программа

Torrent_Bot

Торрент-Бот
Бот форума
4 Окт 2016
125
32
20
Трэклист:
1. Город детства
2. Мечта
3. Девушка из Парижа
4. Каролинка
5. Каштаны
6. Красный автобус
7. Упрямая мелодия
8. Не верю я песне
9. Маленький сапожник
10. Так легко
11. Я счастье несу
12. Караулы влюблённых
13. Зимняя песенка
14. Ничего не вижу
15. Венок Дуная
16. Прощайте, голуби
17. Стань таким

Трэклист:
1. Найди меня
2. Придумай такое мне имя
3. На Фонтанке
4. Зачем снятся сны
5. Я к тебе не вернусь
6. Прости меня, прости
7. Парижское танго
8. Одно твоё прикосновение
9. А ты позови
10. Забудем всё
11. Дождь за окнами дома
12. Семейный альбом
13. Откроем любовь неизвестную
14. Придёт и к вам любовь
15. Любовь
16. Сыплет небо порошею
17. Разве привыкают к чудесам

Жанр:Retro
Год выпуска диска: 2007
Производитель диска: Россия
Аудио кодек: APE
Тип рипа: image+.cue
Битрейт аудио: lossless
Продолжительность: 1ч 45м 26с

Exact Audio Copy V0.99 prebeta 4 from 23. January 2008
Отчёт EAC об извлечении, выполненном 3. октября 2008, 22:34
Эдита Пьеха / Город детства - Золотая коллекция ретро (CD1)
Дисковод: Optiarc DVD RW AD-5170A Adapter: 0 ID: 0
Режим чтения : Достоверность
Использование точного потока : Да
Отключение кэша аудио : Да
Использование указателей C2 : Нет
Коррекция смещения при чтении : 48
Способность читать области Lead-in и Lead-out : Нет
Заполнение пропущенных сэмплов тишиной : Да
Удаление блоков с тишиной в начале и конце : Нет
При вычислениях CRC использовались нулевые сэмплы : Да
Интерфейс : Встроенный Win32-интерфейс для Win NT/2000
Выходной формат : Внутренние WAV-операции
Формат сэмплов : 44.100 Гц; 16 бит; стерео
TOC извлечённого CD
Трек | Старт | Длительность | Начальный сектор | Конечный сектор
---------------------------------------------------------------------
1 | 0:00.00 | 3:49.59 | 0 | 17233
2 | 3:49.59 | 3:06.65 | 17234 | 31248
3 | 6:56.49 | 2:40.60 | 31249 | 43308
4 | 9:37.34 | 1:58.59 | 43309 | 52217
5 | 11:36.18 | 2:17.48 | 52218 | 62540
6 | 13:53.66 | 2:02.57 | 62541 | 71747
7 | 15:56.48 | 1:46.56 | 71748 | 79753
8 | 17:43.29 | 2:19.49 | 79754 | 90227
9 | 20:03.03 | 2:53.28 | 90228 | 103230
10 | 22:56.31 | 2:08.15 | 103231 | 112845
11 | 25:04.46 | 4:12.21 | 112846 | 131766
12 | 29:16.67 | 3:15.04 | 131767 | 146395
13 | 32:31.71 | 2:46.25 | 146396 | 158870
14 | 35:18.21 | 2:04.18 | 158871 | 168188
15 | 37:22.39 | 2:33.39 | 168189 | 179702
16 | 39:56.03 | 2:56.04 | 179703 | 192906
17 | 42:52.07 | 3:40.02 | 192907 | 209408
Характеристики диапазона извлечения и сообщения об ошибках
Выбранный диапазон
Имя файла D:AudioЭ.Пьеха - Город детстваCD1Эдита Пьеха - Город детства - Золотая коллекция ретро (CD1).wav
Пиковый уровень 98.8 %
Качество диапазона 100.0 %
CRC копии 03741763
Копирование... OK
Ошибок не произошло
Конец отчёта
Exact Audio Copy V0.99 prebeta 4 from 23. January 2008
Отчёт EAC об извлечении, выполненном 3. октября 2008, 22:57
Эдита Пьеха / Город детства - Золотая коллекция ретро (CD2)
Дисковод: Optiarc DVD RW AD-5170A Adapter: 0 ID: 0
Режим чтения : Достоверность
Использование точного потока : Да
Отключение кэша аудио : Да
Использование указателей C2 : Нет
Коррекция смещения при чтении : 48
Способность читать области Lead-in и Lead-out : Нет
Заполнение пропущенных сэмплов тишиной : Да
Удаление блоков с тишиной в начале и конце : Нет
При вычислениях CRC использовались нулевые сэмплы : Да
Интерфейс : Встроенный Win32-интерфейс для Win NT/2000
Выходной формат : Внутренние WAV-операции
Формат сэмплов : 44.100 Гц; 16 бит; стерео
TOC извлечённого CD
Трек | Старт | Длительность | Начальный сектор | Конечный сектор
---------------------------------------------------------------------
1 | 0:00.00 | 3:39.50 | 0 | 16474
2 | 3:39.50 | 5:33.13 | 16475 | 41462
3 | 9:12.63 | 3:25.51 | 41463 | 56888
4 | 12:38.39 | 3:39.13 | 56889 | 73326
5 | 16:17.52 | 3:30.68 | 73327 | 89144
6 | 19:48.45 | 4:11.25 | 89145 | 107994
7 | 23:59.70 | 2:26.68 | 107995 | 119012
8 | 26:26.63 | 2:55.57 | 119013 | 132194
9 | 29:22.45 | 3:39.29 | 132195 | 148648
10 | 33:01.74 | 3:55.43 | 148649 | 166316
11 | 36:57.42 | 3:04.54 | 166317 | 180170
12 | 40:02.21 | 4:01.62 | 180171 | 198307
13 | 44:04.08 | 3:16.36 | 198308 | 213043
14 | 47:20.44 | 3:09.19 | 213044 | 227237
15 | 50:29.63 | 3:30.45 | 227238 | 243032
16 | 54:00.33 | 2:37.13 | 243033 | 254820
17 | 56:37.46 | 2:12.35 | 254821 | 264755
Характеристики диапазона извлечения и сообщения об ошибках
Выбранный диапазон
Имя файла D:AudioЭ.Пьеха - Город детстваCD2Эдита Пьеха - Город детства - Золотая коллекция ретро (CD2).wav
Пиковый уровень 100.0 %
Качество диапазона 99.9 %
CRC копии 259DF637
Копирование... OK
Ошибок не произошло
Конец отчёта
 

Вложения

  • 14,7 KB Просмотры: 0
    Личеров 0
    Сидеров 0
    Файлов 15
    Объем 559 MB
Ваш e-mail не будет опубликован. Он потребуется для подтверждения Вашего поста.
Оформление текста Нажмите «Ввод», чтобы отправить ответ.