За сегодня опубликовано 0 новых материалов.
Инструкция новичку Путеводитель по форуму Прокси для Telegram Показать подсказки , это бомба!

Скачать Две королевы / Mary Queen of Scots (2018) UHD BDRemux 2160p от селезень | 4K | HDR | Лицензия бесплатно через торрент

  • Получай до 480 рублей за каждого приглашенного пользователя!
    представляем Вам очередное расширение партнерской программы, подробности описаны тут -> ссылка
  • 90% материалов доступно к скачиванию после простой регистрации!
    Если же ты хочешь скачивать материалы без требования оставлять отзывы то получи группу "Новичок", 10 способов повышения описаны тут -> ссылка
  • К сожалению количество битых ссылок растет и мы уже не можем их оперативно восстанавливать поэтому просим помощи у каждого нашего пользователя.
    С сегодняшнего дня, за каждую восстановленную ссылку мы заплатим Вам.
    Подробнее тут -> ссылка
  • Перенесем твои заслуги с другого ресурса!
    Мы понимаем как сложно прокачивать аккаунты на форумах, вроде раскачал аккаунт, а тут появляется ресурс в 100 раз круче но тоже с системой прокачки и снова качать аккаунт...
    Предлагаем вам перенести Ваши заслуги на другом подобном ресурсе к нам.
    Подробности описаны тут -> ссылка
  • Вы можете получать по 2.5% с каждой покупки и продажи на маркете! Подробности в теме Партнёрская программа
Если Вы не хотите скачивать, Вы всегда можете посмотреть онлайн, просто нажмите кнопку ниже :

Открыть плеер

Torrent_Bot

Торрент-Бот
Бот форума
4 Окт 2016
125
30
20


Информация о фильме
Название: Две королевы
Оригинальное название: Mary Queen of Scots
Год выхода: 2018
Жанр: Драма, биография, история
Режиссер: Джози Рурк
В ролях: Сирша Ронан, Марго Робби, Джек Лауден, Джо Элвин, Дэвид Теннант, Гай Пирс, Анджела Бэйн, Ричард Кэнт, Гай Риз, Том Петти



О фильме: Безжалостная Елизавета I и дерзкая Мария Стюарт соперничали в политике и любви. Как получилось, что во времена абсолютной власти мужчин, две женщины борются за престол Англии?

Страна: Великобритани
Студия: Focus Features, Perfect World Pictures, Working Title Films
Продолжительность: 02:03:54
Перевод: Дублированный | Лицензия

Качество: BDRemux 2160p
Видео: MPEG-H HEVC HDR Video, 3840x2160, 73300 Kbit/s, 23.976 fps
Звук:
Аудио #01: 48 kHz, AC3, 5.1, 640 Kbps | Лицензия | RUS |
Аудио #02: 48 kHz, TrueHD, 7.1, 3882 Kbps | Оригинал | ENG |
Аудио #03: 48 kHz, AC3, 5.1, 448 Kbps | Оригинал | ENG |
Субтитры: Русские (forced, full), английские



MI
General
Unique ID : 276197822280211833579633175166749900741 (0xCFC9C401AA25E6425E8ACB378F85FFC5)
Complete name : E:RelizesMary.Queen.of.Scots.2018.Lic.BDREMUX.2160p.HDR.seleZen.mkv
Format : Matroska
Format version : Version 4
File size : 67.8 GiB
Duration : 2 h 3 min
Overall bit rate mode : Variable
Overall bit rate : 78.3 Mb/s
Movie name : Mary Queen of Scots (2018) 4K from селезень
Encoded date : UTC 2019-05-29 08:52:01
Writing application : mkvmerge v33.1.0 ('Primrose') 64-bit
Writing library : libebml v1.3.7 + libmatroska v1.5.0

Video
ID : 1
Format : HEVC
Format/Info : High Efficiency Video Coding
Format profile : Main [email protected]@High
HDR format : SMPTE ST 2086, HDR10 compatible
Codec ID : V_MPEGH/ISO/HEVC
Duration : 2 h 3 min
Bit rate : 73.3 Mb/s
Width : 3 840 pixels
Height : 2 160 pixels
Display aspect ratio : 16:9
Frame rate mode : Constant
Frame rate : 23.976 (24000/1001) FPS
Color space : YUV
Chroma subsampling : 4:2:0 (Type 2)
Bit depth : 10 bits
Bits/(Pixel*Frame) : 0.369
Stream size : 63.4 GiB (94%)
Language : English
Default : Yes
Forced : No
Color range : Limited
Color primaries : BT.2020
Transfer characteristics : PQ
Matrix coefficients : BT.2020 non-constant
Mastering display color pri : Display P3
Mastering display luminance : min: 0.0001 cd/m2, max: 1000 cd/m2
Maximum Content Light Level : 1000 cd/m2
Maximum Frame-Average Light : 114 cd/m2

Audio #1
ID : 2
Format : AC-3
Format/Info : Audio Coding 3
Commercial name : Dolby Digital
Codec ID : A_AC3
Duration : 2 h 3 min
Bit rate mode : Constant
Bit rate : 640 kb/s
Channel(s) : 6 channels
Channel layout : L R C LFE Ls Rs
Sampling rate : 48.0 kHz
Frame rate : 31.250 FPS (1536 SPF)
Bit depth : 16 bits
Compression mode : Lossy
Stream size : 567 MiB (1%)
Title : Dub [License]
Language : Russian
Service kind : Complete Main
Default : Yes
Forced : Yes

Audio #2
ID : 3
Format : MLP FBA 16-ch
Format/Info : Meridian Lossless Packing FBA with 16-channel presentation
Commercial name : Dolby TrueHD with Dolby Atmos
Codec ID : A_TRUEHD
Duration : 2 h 3 min
Bit rate mode : Variable
Bit rate : 3 882 kb/s
Maximum bit rate : 6 444 kb/s
Channel(s) : 8 channels
Channel layout : L R C LFE Ls Rs Lb Rb
Sampling rate : 48.0 kHz
Frame rate : 1 200.000 FPS (40 SPF)
Compression mode : Lossless
Stream size : 3.36 GiB (5%)
Title : Original
Language : English
Default : No
Forced : No
Number of dynamic objects : 11
Bed channel count : 1 channel
Bed channel configuration : LFE

Audio #3
ID : 4
Format : AC-3
Format/Info : Audio Coding 3
Commercial name : Dolby Digital
Codec ID : A_AC3
Duration : 2 h 3 min
Bit rate mode : Constant
Bit rate : 448 kb/s
Channel(s) : 6 channels
Channel layout : L R C LFE Ls Rs
Sampling rate : 48.0 kHz
Frame rate : 31.250 FPS (1536 SPF)
Bit depth : 16 bits
Compression mode : Lossy
Stream size : 397 MiB (1%)
Language : English
Service kind : Complete Main
Default : No
Forced : No

Text #1
ID : 5
Format : UTF-8
Codec ID : S_TEXT/UTF8
Codec ID/Info : UTF-8 Plain Text
Duration : 2 h 2 min
Bit rate : 1 b/s
Count of elements : 19
Stream size : 934 Bytes (0%)
Title : Forced
Language : Russian
Default : Yes
Forced : Yes

Text #2
ID : 6
Format : UTF-8
Codec ID : S_TEXT/UTF8
Codec ID/Info : UTF-8 Plain Text
Duration : 2 h 2 min
Bit rate : 57 b/s
Count of elements : 1258
Stream size : 52.2 KiB (0%)
Title : Full
Language : Russian
Default : No
Forced : No

Text #3
ID : 7
Format : UTF-8
Codec ID : S_TEXT/UTF8
Codec ID/Info : UTF-8 Plain Text
Duration : 1 h 53 min
Bit rate : 42 b/s
Count of elements : 1127
Stream size : 35.0 KiB (0%)
Title : Full
Language : English
Default : No
Forced : No

Text #4
ID : 8
Format : UTF-8
Codec ID : S_TEXT/UTF8
Codec ID/Info : UTF-8 Plain Text
Duration : 2 h 3 min
Bit rate : 47 b/s
Count of elements : 1624
Stream size : 43.3 KiB (0%)
Title : SDH
Language : English
Default : No
Forced : No

Menu
00:00:00.000 : en:Chapter 1
00:06:10.537 : en:Chapter 2
00:10:38.680 : en:Chapter 3
00:16:07.091 : en:Chapter 4
00:21:06.098 : en:Chapter 5
00:24:59.206 : en:Chapter 6
00:30:21.737 : en:Chapter 7
00:39:02.840 : en:Chapter 8
00:44:19.740 : en:Chapter 9
00:51:17.992 : en:Chapter 10
01:00:02.599 : en:Chapter 11
01:04:18.855 : en:Chapter 12
01:12:19.585 : en:Chapter 13
01:18:06.974 : en:Chapter 14
01:26:53.625 : en:Chapter 15
01:31:19.474 : en:Chapter 16
01:38:32.782 : en:Chapter 17
01:42:30.186 : en:Chapter 18
01:51:35.689 : en:Chapter 19
01:56:53.256 : en:Chapter 20

Релиз:

 

Вложения

  • 85,7 KB Просмотры: 0
    Личеров 0
    Сидеров 0
    Файлов 1
    Объем 67,8 GB
Ваш e-mail не будет опубликован. Он потребуется для подтверждения Вашего поста.
Оформление текста Нажмите «Ввод», чтобы отправить ответ.