За сегодня опубликовано 18 новых материалов.
Инструкция новичку Путеводитель по форуму Прокси для Telegram Показать подсказки , это бомба!

Скачать Два отца и два сына [S01-03] (2013-2016) WEB-DLRip от Generalfilm | КПК бесплатно через торрент

  • 90% материалов доступно к скачиванию после простой регистрации!
    Если же ты хочешь скачивать материалы без требования оставлять отзывы то получи группу "Новичок", 10 способов повышения описаны тут -> ссылка
  • К сожалению количество битых ссылок растет и мы уже не можем их оперативно восстанавливать поэтому просим помощи у каждого нашего пользователя.
    С сегодняшнего дня, за каждую восстановленную ссылку мы заплатим Вам.
    Подробнее тут -> ссылка
  • Перенесем твои заслуги с другого ресурса!
    Мы понимаем как сложно прокачивать аккаунты на форумах, вроде раскачал аккаунт, а тут появляется ресурс в 100 раз круче но тоже с системой прокачки и снова качать аккаунт...
    Предлагаем вам перенести Ваши заслуги на другом подобном ресурсе к нам.
    Подробности описаны тут -> ссылка
  • Вы можете получать по 2.5% с каждой покупки и продажи на маркете! Подробности в теме Партнёрская программа
Если Вы не хотите скачивать, Вы всегда можете посмотреть онлайн, просто нажмите кнопку ниже :

Открыть плеер

Torrent_Bot

Торрент-Бот
Бот форума
4 Окт 2016
125
17
20
Информация о фильме
Оригинальное название: Два отца и два сына
Год выпуска: 2013
Жанр: Комедия
Режиссер: Радда Новикова
В ролях: Дмитрий Нагиев, Алика Смехова, Максим Студеновский, Виктория Лукина, Илья Костюков, Татьяна Анисимова, Ангелина Притуманова

О фильме: Павел Гуров — успешный актер, любимец женщин, сигар и виски. И то, и другое, и особенно первое необходимо Гурову как воздух. Семья и долгие отношения с девушками не для него. Когда-то давно, Павел оставил в Брянске жену с ребенком и уехал в Москву делать карьеру актера… Прошло 20 лет. Совсем уже взрослый сын Гурова Виктор вместе со своим сыном Владом появляется на отцовском пороге. Виктор приехал чтобы вернуть сбежавшую от него жену Аню. Квартиру отца он воспринимает как временный перевалочный пункт. Однако ни через день, ни через два, ни даже через неделю Аня не возвращается, а Гуров-старший с ужасом для себя понимает, что родственнички приехали надолго…



Страна: Россия
Студия: Yellow, Black & White
Продолжительность: 60 x ~ 00:24:00
Перевод: Не требуется

Файл
Качество: WEB-DLRip | КПК
Видео: MPEG-4 AVC (x264), 640x360, ~500 kbps, 25.000 fps
Аудио: AAC LC, 44.1 KHz, 2 ch, 128 Kbps
Субтитры: Нет

Семпл

Скриншоты
MI
Complete name : E:KinoDva.Otca.I.Dva.Syna.AVC.WEB-DLRip.KPK.GeneralfilmDva.Otca.I.Dva.Syna.S03.2016.AVC.WEB-DLRip.KPK.GeneralfilmDva.Otca.I.Dva.Syna.s03e14.2016.AVC.WEB-DLRip.KPK.Generalfilm.mp4
Format : MPEG-4
Codec ID : M4V (isom/iso2/avc1)
File size : 110 MiB
Duration : 24mn 13s
Overall bit rate mode : Variable
Overall bit rate : 633 Kbps
Writing application : Lavf53.19.0

Video
ID : 1
Format : AVC
Format/Info : Advanced Video Codec
Format profile : [email protected]
Format settings, CABAC : Yes
Format settings, ReFrames : 8 frames
Codec ID : avc1
Codec ID/Info : Advanced Video Coding
Duration : 24mn 13s
Bit rate : 500 Kbps
Width : 640 pixels
Height : 360 pixels
Display aspect ratio : 16:9
Frame rate mode : Constant
Frame rate : 25.000 fps
Color space : YUV
Chroma subsampling : 4:2:0
Bit depth : 8 bits
Scan type : Progressive
Bits/(Pixel*Frame) : 0.087
Stream size : 86.5 MiB (79%)
Writing library : x264 core 146 r2538 121396c
Encoding settings : cabac=1 / ref=8 / deblock=1:-1:-1 / analyse=0x3:0x133 / me=umh / subme=10 / psy=1 / psy_rd=1.00:0.00 / mixed_ref=1 / me_range=24 / chroma_me=1 / trellis=2 / 8x8dct=1 / cqm=0 / deadzone=21,11 / fast_pskip=1 / chroma_qp_offset=-2 / threads=12 / lookahead_threads=2 / sliced_threads=0 / nr=0 / decimate=1 / interlaced=0 / bluray_compat=0 / constrained_intra=0 / bframes=8 / b_pyramid=2 / b_adapt=2 / b_bias=0 / direct=3 / weightb=1 / open_gop=0 / weightp=2 / keyint=250 / keyint_min=126 / scenecut=40 / intra_refresh=0 / rc_lookahead=40 / rc=2pass / mbtree=1 / bitrate=500 / ratetol=1.0 / qcomp=0.60 / qpmin=0 / qpmax=69 / qpstep=4 / cplxblur=20.0 / qblur=0.5 / ip_ratio=1.40 / aq=1:1.00
Menus : 3

Audio
ID : 2
Format : AAC
Format/Info : Advanced Audio Codec
Format profile : LC
Codec ID : 40
Duration : 24mn 13s
Bit rate mode : Variable
Bit rate : 128 Kbps
Channel(s) : 2 channels
Channel positions : Front: L R
Sampling rate : 48.0 KHz
Frame rate : 46.875 fps (1024 spf)
Compression mode : Lossy
Stream size : 22.1 MiB (20%)
Default : Yes
Alternate group : 1
Menus : 3
Релиз от:
 

Вложения

  • 26,8 KB Просмотры: 0
    Личеров 0
    Сидеров 0
    Файлов 60
    Объем 6,4 GB
Ваш e-mail не будет опубликован. Он потребуется для подтверждения Вашего поста.
Оформление текста Нажмите «Ввод», чтобы отправить ответ.

Привет!

Мы группа людей которые решили помочь другим в решении их проблем, а так же пользователям с поиском самых свежих и качественных инфопродуктов. За 4 с небольшим месяца мы создали этот форум на который заходят ежедневно тысячи человек и посещаемость постоянно растёт. Мы создали панель лицензирования для защиты PHP скриптов от воровства и SEO панель для мониторинга наших сайтов и выбора верной стратегии их развития. Мы надеемся что то что мы создали пригодится Вам и возможно Вы поможете нам развиваться и совершенствоваться вместе с Вами.

Статистика форума

Темы
347.658
Сообщения
373.558
Пользователи
28.925
Новый пользователь
Shinder

Приложения форума для iOS и Android


У ркн там нет власти ;)