За сегодня опубликовано 4 новых материалов.
Инструкция новичку Путеводитель по форуму Прокси для Telegram Показать подсказки , это бомба!

Скачать Драконий жемчуг Супер: Броли / Dragon Ball Super: Broly (2018) WEB-DLRip-AVC от OlLanDGroup | HDRezka Studio бесплатно через торрент

  • Получай до 480 рублей за каждого приглашенного пользователя!
    представляем Вам очередное расширение партнерской программы, подробности описаны тут -> ссылка
  • 90% материалов доступно к скачиванию после простой регистрации!
    Если же ты хочешь скачивать материалы без требования оставлять отзывы то получи группу "Новичок", 10 способов повышения описаны тут -> ссылка
  • К сожалению количество битых ссылок растет и мы уже не можем их оперативно восстанавливать поэтому просим помощи у каждого нашего пользователя.
    С сегодняшнего дня, за каждую восстановленную ссылку мы заплатим Вам.
    Подробнее тут -> ссылка
  • Перенесем твои заслуги с другого ресурса!
    Мы понимаем как сложно прокачивать аккаунты на форумах, вроде раскачал аккаунт, а тут появляется ресурс в 100 раз круче но тоже с системой прокачки и снова качать аккаунт...
    Предлагаем вам перенести Ваши заслуги на другом подобном ресурсе к нам.
    Подробности описаны тут -> ссылка
  • Вы можете получать по 2.5% с каждой покупки и продажи на маркете! Подробности в теме Партнёрская программа

Torrent_Bot

Торрент-Бот
Бот форума
4 Окт 2016
125
29
20


Драконий жемчуг Супер: Броли / Dragon Ball Super: Broly
«Dragon Ball Super, the Movie begins»



Год выпуска: 2018
Страна: Япония
Производство: Toei, Fox International Productions, Shueisha
Жанр: Аниме, мультфильм, боевик, фэнтези, фантастика


Режиссёр: Нагаминэ Тацуя
В ролях: Сигэру Тиба, Хисао Эгава, Тосио Фурукава, Бандзё Гинга, Ая Хисакава, Рё Хорикава, Хоки Кацухиса, Тэцу Инада, Такуя Киримото, Такэси Кусао


Перевод: Профессиональный многоголосый | [HDRezka Studio]
Субтитры: Нет
Реклама: Отсутствует

Описание: Когда-то злобный галактический император Фриза, узнав легенду о могущественном супер-сайяне, который сможет его победить, уничтожил планету Веджета, а вместе с ней и всех её обитателей. Выжили лишь несколько представителей высокоразвитой расы и принц Гоку. Ему удалось найти убежище на Земле, где он посвятил почти все свое время тренировкам, чтобы быть готовым к столкновению с самыми опасными противниками во вселенной. И однажды ему выпадает шанс применить свои уникальные способности на практике, когда на горизонте появляется новый враг, обладающий разрушительной силой...




Качество: WEB-DLRip-AVC | AMZN Version |
Продолжительность: 01:40:02

Формат: MKV
Видео кодек: MPEG-4 AVC
Аудио кодек: AC3
Видео: 1024x576 (16:9), 23,976 fps, x264 ~1 894 kbps avg, 0.134 bit/pixel
Аудио #1: 48 kHz, AC3 Dolby Digital, 2 (L,R) ch, ~192.00 kbps avg | RUS (HDRezka Studio)


Дата премьеры (мир): 14 декабря 2018
Дата премьеры (РФ):
Цифровой релиз:


Релиз от:

MediaInfo
Общее
Уникальный идентификатор : 20904962565894724606273524739733117111 (0xFBA263B17EEE955FF8E5145D64AD8B7)
Полное имя : F:OlLanDGroupDragon.Ball.Super.Broly.2018.AMZN.WEB-DLRip(AVC).OlLanDGroup.mkv
Формат : Matroska
Версия формата : Version 4 / Version 2
Размер файла : 1,46 Гбайт
Продолжительность : 1 ч. 40 м.
Общий поток : 2087 Кбит/сек
Название фильма : Dragon.Ball.Super.Broly.2018 #TorpedoUK#
Дата кодирования : UTC 2019-02-25 06:25:40
Программа кодирования : mkvmerge v29.0.0 ('Like It Or Not') 64-bit
Библиотека кодирования : libebml v1.3.6 + libmatroska v1.4.9

Видео
Идентификатор : 1
Формат : AVC
Формат/Информация : Advanced Video Codec
Профиль формата : [email protected]
Параметр CABAC формата : Да
Параметр ReFrames формата : 10 кадров
Идентификатор кодека : V_MPEG4/ISO/AVC
Продолжительность : 1 ч. 40 м.
Битрейт : 1894 Кбит/сек
Ширина : 1024 пикселя
Высота : 576 пикселей
Соотношение сторон : 16:9
Режим частоты кадров : Постоянный
Частота кадров : 23,976 (24000/1001) кадра/сек
Цветовое пространство : YUV
Субдискретизация насыщенности : 4:2:0
Битовая глубина : 8 бит
Тип развёртки : Прогрессивная
Бит/(Пиксели*Кадры) : 0.134
Размер потока : 1,32 Гбайт (91%)
Библиотека кодирования : x264 core 146 r2538 121396c
Настройки программы : cabac=1 / ref=10 / deblock=1:-3:-3 / analyse=0x3:0x113 / me=umh / subme=10 / psy=1 / psy_rd=1.00:0.03 / mixed_ref=1 / me_range=48 / chroma_me=1 / trellis=2 / 8x8dct=1 / cqm=0 / deadzone=21,11 / fast_pskip=1 / chroma_qp_offset=-3 / threads=6 / lookahead_threads=1 / sliced_threads=0 / nr=0 / decimate=1 / interlaced=0 / bluray_compat=0 / constrained_intra=0 / bframes=11 / b_pyramid=2 / b_adapt=2 / b_bias=0 / direct=3 / weightb=1 / open_gop=0 / weightp=2 / keyint=240 / keyint_min=23 / scenecut=40 / intra_refresh=0 / rc_lookahead=40 / rc=2pass / mbtree=0 / bitrate=1894 / ratetol=1.0 / qcomp=0.60 / qpmin=0 / qpmax=69 / qpstep=4 / cplxblur=20.0 / qblur=0.5 / vbv_maxrate=50000 / vbv_bufsize=62500 / nal_hrd=none / filler=0 / ip_ratio=1.40 / pb_ratio=1.30 / aq=1:1.00
Default : Да
Forced : Нет

Аудио
Идентификатор : 2
Формат : AC-3
Формат/Информация : Audio Coding 3
Расширение режима : CM (complete main)
Параметр Endianness формата : Big
Идентификатор кодека : A_AC3
Продолжительность : 1 ч. 40 м.
Вид битрейта : Постоянный
Битрейт : 192 Кбит/сек
Каналы : 2 канала
Расположение каналов : Front: L R
Частота : 48,0 КГц
Частота кадров : 31,250 кадров/сек (1536 spf)
Битовая глубина : 16 бит
Метод сжатия : С потерями
Размер потока : 137 Мбайт (9%)
Заголовок : MVO [HDRezka Studio]
Язык : Russian
Default : Да
Forced : Нет

Текст
Идентификатор : 3
Формат : UTF-8
Идентификатор кодека : S_TEXT/UTF8
Идентификатор кодека/Информация : UTF-8 Plain Text
Продолжительность : 1 ч. 35 м.
Битрейт : 49 бит/сек
Count of elements : 994
Размер потока : 34,4 Кбайт (0%)
Заголовок : English
Язык : English
Default : Нет
Forced : Нет
Скриншоты


 

Вложения

  • 15,5 KB Просмотры: 0
    Личеров 0
    Сидеров 0
    Файлов 1
    Объем 1,5 GB
Ваш e-mail не будет опубликован. Он потребуется для подтверждения Вашего поста.
Оформление текста Нажмите «Ввод», чтобы отправить ответ.