За сегодня опубликовано 0 новых материалов.
Инструкция новичку Путеводитель по форуму Прокси для Telegram Показать подсказки , это бомба!

Скачать Драконий жемчуг Супер: Броли / Dragon Ball Super: Broly (2018) WEB-DL 1080p от OlLanDGroup | HDRezka Studio бесплатно через торрент

  • Получай до 480 рублей за каждого приглашенного пользователя!
    представляем Вам очередное расширение партнерской программы, подробности описаны тут -> ссылка
  • 90% материалов доступно к скачиванию после простой регистрации!
    Если же ты хочешь скачивать материалы без требования оставлять отзывы то получи группу "Новичок", 10 способов повышения описаны тут -> ссылка
  • К сожалению количество битых ссылок растет и мы уже не можем их оперативно восстанавливать поэтому просим помощи у каждого нашего пользователя.
    С сегодняшнего дня, за каждую восстановленную ссылку мы заплатим Вам.
    Подробнее тут -> ссылка
  • Перенесем твои заслуги с другого ресурса!
    Мы понимаем как сложно прокачивать аккаунты на форумах, вроде раскачал аккаунт, а тут появляется ресурс в 100 раз круче но тоже с системой прокачки и снова качать аккаунт...
    Предлагаем вам перенести Ваши заслуги на другом подобном ресурсе к нам.
    Подробности описаны тут -> ссылка
  • Вы можете получать по 2.5% с каждой покупки и продажи на маркете! Подробности в теме Партнёрская программа

Torrent_Bot

Торрент-Бот
Бот форума
4 Окт 2016
125
31
20


Драконий жемчуг Супер: Броли / Dragon Ball Super: Broly
«Dragon Ball Super, the Movie begins»



Год выпуска: 2018
Страна: Япония
Производство: Toei, Fox International Productions, Shueisha
Жанр: Аниме, мультфильм, боевик, фэнтези, фантастика


Режиссёр: Нагаминэ Тацуя
В ролях: Сигэру Тиба, Хисао Эгава, Тосио Фурукава, Бандзё Гинга, Ая Хисакава, Рё Хорикава, Хоки Кацухиса, Тэцу Инада, Такуя Киримото, Такэси Кусао


Перевод: Профессиональный многоголосый | [HDRezka Studio]
Субтитры: Английские (полные)
Реклама: Отсутствует

Описание: Когда-то злобный галактический император Фриза, узнав легенду о могущественном супер-сайяне, который сможет его победить, уничтожил планету Веджета, а вместе с ней и всех её обитателей. Выжили лишь несколько представителей высокоразвитой расы и принц Гоку. Ему удалось найти убежище на Земле, где он посвятил почти все свое время тренировкам, чтобы быть готовым к столкновению с самыми опасными противниками во вселенной. И однажды ему выпадает шанс применить свои уникальные способности на практике, когда на горизонте появляется новый враг, обладающий разрушительной силой...




Качество: WEB-DL 1080p | AMZN Version |
Продолжительность: 01:40:02

Формат: MKV
Видео кодек: MPEG-4 AVC
Аудио кодек: AC3
Видео: 1920x1080 (16:9), 23,976 fps, x264 ~6 248 kbps avg, 0.126 bit/pixel
Аудио #1: 48 kHz, AC3 Dolby Digital, 2 (L,R) ch, ~192.00 kbps avg | RUS (HDRezka Studio)


Дата премьеры (мир): 14 декабря 2018
Дата премьеры (РФ):
Цифровой релиз:


Релиз от:

MediaInfo
Общее
Уникальный идентификатор : 45493145740184373909463257023643050138 (0x2239A9421449DF3C5868C3A05326E09A)
Полное имя : F:OlLanDGroupDragon.Ball.Super.Broly.2018.AMZN.WEB-DL(1080p).OlLanDGroup.mkv
Формат : Matroska
Версия формата : Version 4 / Version 2
Размер файла : 4,50 Гбайт
Продолжительность : 1 ч. 40 м.
Общий поток : 6442 Кбит/сек
Название фильма : Dragon.Ball.Super.Broly.2018 #TorpedoUK#
Дата кодирования : UTC 2019-02-25 01:10:19
Программа кодирования : mkvmerge v29.0.0 ('Like It Or Not') 64-bit
Библиотека кодирования : libebml v1.3.6 + libmatroska v1.4.9

Видео
Идентификатор : 1
Формат : AVC
Формат/Информация : Advanced Video Codec
Профиль формата : [email protected]
Параметр CABAC формата : Да
Параметр ReFrames формата : 4 кадра
Идентификатор кодека : V_MPEG4/ISO/AVC
Продолжительность : 1 ч. 40 м.
Вид битрейта : Постоянный
Битрейт : 6248 Кбит/сек
Номинальный битрейт : 10000 Кбит/сек
Ширина : 1920 пикселей
Высота : 1080 пикселей
Соотношение сторон : 16:9
Режим частоты кадров : Постоянный
Частота кадров : 23,976 (24000/1001) кадра/сек
Цветовое пространство : YUV
Субдискретизация насыщенности : 4:2:0
Битовая глубина : 8 бит
Тип развёртки : Прогрессивная
Бит/(Пиксели*Кадры) : 0.126
Размер потока : 4,37 Гбайт (97%)
Язык : Japanese
Default : Да
Forced : Нет
Цветовой диапазон : Limited
Основные цвета : BT.709
Характеристики трансфера : BT.709
Коэффициенты матрицы : BT.709

Аудио
Идентификатор : 2
Формат : AC-3
Формат/Информация : Audio Coding 3
Расширение режима : CM (complete main)
Параметр Endianness формата : Big
Идентификатор кодека : A_AC3
Продолжительность : 1 ч. 40 м.
Вид битрейта : Постоянный
Битрейт : 192 Кбит/сек
Каналы : 2 канала
Расположение каналов : Front: L R
Частота : 48,0 КГц
Частота кадров : 31,250 кадров/сек (1536 spf)
Битовая глубина : 16 бит
Метод сжатия : С потерями
Размер потока : 137 Мбайт (3%)
Заголовок : MVO [HDRezka Studio]
Язык : Russian
Default : Да
Forced : Нет

Текст
Идентификатор : 3
Формат : UTF-8
Идентификатор кодека : S_TEXT/UTF8
Идентификатор кодека/Информация : UTF-8 Plain Text
Продолжительность : 1 ч. 35 м.
Битрейт : 49 бит/сек
Count of elements : 994
Размер потока : 34,4 Кбайт (0%)
Заголовок : English
Язык : English
Default : Нет
Forced : Нет
Скриншоты


 

Вложения

  • 23,4 KB Просмотры: 0
    Личеров 0
    Сидеров 0
    Файлов 1
    Объем 4,5 GB
Ваш e-mail не будет опубликован. Он потребуется для подтверждения Вашего поста.
Оформление текста Нажмите «Ввод», чтобы отправить ответ.