За сегодня опубликовано 1 новых материалов.
Инструкция новичку Путеводитель по форуму Прокси для Telegram Показать подсказки , это бомба!

Скачать Домашний арест / House Arrest (1996) WEBRip-AVC | P, P2 бесплатно через торрент

  • 90% материалов доступно к скачиванию после простой регистрации!
    Если же ты хочешь скачивать материалы без требования оставлять отзывы то получи группу "Новичок", 10 способов повышения описаны тут -> ссылка
  • К сожалению количество битых ссылок растет и мы уже не можем их оперативно восстанавливать поэтому просим помощи у каждого нашего пользователя.
    С сегодняшнего дня, за каждую восстановленную ссылку мы заплатим Вам.
    Подробнее тут -> ссылка
  • Перенесем твои заслуги с другого ресурса!
    Мы понимаем как сложно прокачивать аккаунты на форумах, вроде раскачал аккаунт, а тут появляется ресурс в 100 раз круче но тоже с системой прокачки и снова качать аккаунт...
    Предлагаем вам перенести Ваши заслуги на другом подобном ресурсе к нам.
    Подробности описаны тут -> ссылка
  • Вы можете получать по 2.5% с каждой покупки и продажи на маркете! Подробности в теме Партнёрская программа
Если Вы не хотите скачивать, Вы всегда можете посмотреть онлайн, просто нажмите кнопку ниже :

Открыть плеер

Torrent_Bot

Торрент-Бот
Бот форума
4 Окт 2016
125
22
20






Информация о фильме
Название: Домашний арест
Оригинальное название: House Arrest
Год выхода: 1996
Жанр: комедия, семейный
Режиссер: Гарри Вайнер

В ролях: Джейми Ли Кёртис, Кевин Поллак, Кэролайн Аарон, Дженнифер Тилли, Дженнифер Лав Хьюитт, Кристофер Макдональд, Коллин Кэмп, Кайл Ховард, Уоллес Шон, Рассел Харпер, Эми Сакасиц, Пэтрика Дарбо, Рэй Уолстон, Шила МакКарти, Дэниэл Робак, Бен Стайн

О фильме:
Брат с сестрой узнали, что их родители задумали разойтись. По совету одноклассника они заманили их в подвал и заколотили дверь, объявив, что не выпустят, пока те не решат все свои проблемы. На следующий же день это стало известно всей школе, и вскоре другие подростки, у которых в семье не было полного счастья, поместили своих «предков» в тот же подвал, заменив дверь стальной решеткой…



Страна: США
Студия: Metro-Goldwyn-Mayer (MGM), Rysher Entertainment
Продолжительность: 01:48:55
Перевод: Профессиональный (многоголосый,закадровый) + профессиональный (двухголосый закадровый)

Файл
Формат: Matroska
Качество: WEBRip-AVC
Видео: 1022x576 at 23.976 fps, x264, ~3025 kbps
Аудио №1: AC3, 2 ch, ~192 kbps - | Русский | - MVO - (СТС)
Аудио №2: AC3, 2 ch, ~192 kbps - | Русский | - DVO - (НТВ)
Субтитры: Нет

***Релиз от:-=DoMiNo=-



M/I
General
Unique ID : 58372637170877830641246514117150796738 (0x2BEA2936614E5B38F3EE31325A086BC2)
Complete name : Домашний арест.(1996).WEBRip-AVC.O.M.[-=DoMiNo=-].mkv
Format : Matroska
Format version : Version 4
File size : 2.60 GiB
Duration : 1 h 48 min
Overall bit rate : 3 411 kb/s
Movie name : Домашний арест / House Arrest (1996)
Encoded date : UTC 2019-04-10 13:20:32
Writing application : mkvmerge v32.0.0 ('Astral Progressions') 64-bit
Writing library : libebml v1.3.7 + libmatroska v1.5.0
Attachments : poster.jpg

Video
ID : 1
Format : AVC
Format/Info : Advanced Video Codec
Format profile : [email protected]
Format settings : CABAC / 10 Ref Frames
Format settings, CABAC : Yes
Format settings, ReFrames : 10 frames
Codec ID : V_MPEG4/ISO/AVC
Duration : 1 h 48 min
Bit rate : 3 025 kb/s
Width : 1 022 pixels
Height : 576 pixels
Display aspect ratio : 16:9
Frame rate mode : Constant
Frame rate : 23.976 (24000/1001) FPS
Color space : YUV
Chroma subsampling : 4:2:0
Bit depth : 8 bits
Scan type : Progressive
Bits/(Pixel*Frame) : 0.214
Stream size : 2.30 GiB (89%)
Title : RIP_BY_-=DoMiNo=-
Writing library : x264 core 157 r2969 d4099dd
Encoding settings : cabac=1 / ref=10 / deblock=1:-2:-2 / analyse=0x3:0x133 / me=umh / subme=11 / psy=1 / psy_rd=1.00:0.15 / mixed_ref=1 / me_range=32 / chroma_me=1 / trellis=2 / 8x8dct=1 / cqm=0 / deadzone=21,11 / fast_pskip=1 / chroma_qp_offset=-3 / threads=6 / lookahead_threads=1 / sliced_threads=0 / nr=0 / decimate=1 / interlaced=0 / bluray_compat=0 / constrained_intra=0 / bframes=9 / b_pyramid=2 / b_adapt=2 / b_bias=0 / direct=3 / weightb=1 / open_gop=0 / weightp=2 / keyint=250 / keyint_min=24 / scenecut=40 / intra_refresh=0 / rc_lookahead=250 / rc=crf / mbtree=1 / crf=18.0 / qcomp=0.70 / qpmin=0 / qpmax=69 / qpstep=4 / vbv_maxrate=50000 / vbv_bufsize=62500 / crf_max=0.0 / nal_hrd=none / filler=0 / ip_ratio=1.40 / aq=3:0.80
Language : English
Default : Yes
Forced : No
Color range : Limited

Audio #1
ID : 2
Format : AC-3
Format/Info : Audio Coding 3
Commercial name : Dolby Digital
Codec ID : A_AC3
Duration : 1 h 48 min
Bit rate mode : Constant
Bit rate : 192 kb/s
Channel(s) : 2 channels
Channel layout : L R
Sampling rate : 48.0 kHz
Frame rate : 31.250 FPS (1536 SPF)
Bit depth : 16 bits
Compression mode : Lossy
Stream size : 150 MiB (6%)
Title : MVO_[СТС]
Language : Russian
Service kind : Complete Main
Default : Yes
Forced : No

Audio #2
ID : 3
Format : AC-3
Format/Info : Audio Coding 3
Commercial name : Dolby Digital
Codec ID : A_AC3
Duration : 1 h 48 min
Bit rate mode : Constant
Bit rate : 192 kb/s
Channel(s) : 2 channels
Channel layout : L R
Sampling rate : 48.0 kHz
Frame rate : 31.250 FPS (1536 SPF)
Bit depth : 16 bits
Compression mode : Lossy
Stream size : 150 MiB (6%)
Title : MVO_[НТВ]
Language : Russian
Service kind : Complete Main
Default : No
Forced : No

Menu
00:00:00.000 : en:Глава 01
00:10:00.000 : en:Глава 02
00:20:00.000 : en:Глава 03
00:30:00.000 : en:Глава 04
00:40:00.000 : en:Глава 05
00:50:00.000 : en:Глава 06
01:00:00.000 : en:Глава 07
01:10:00.000 : en:Глава 08
01:20:00.000 : en:Глава 09
01:30:00.000 : en:Глава 10
01:40:00.000 : en:Глава 11
Скриншоты

 

Вложения

  • 15,4 KB Просмотры: 0
    Личеров 0
    Сидеров 0
    Файлов 1
    Объем 2,6 GB
Ваш e-mail не будет опубликован. Он потребуется для подтверждения Вашего поста.
Оформление текста Нажмите «Ввод», чтобы отправить ответ.